<?xml version="1.0" standalone="no"?>
<!DOCTYPE svg PUBLIC "-//W3C//DTD SVG 1.1//EN" "http://www.w3.org/Graphics/SVG/1.1/DTD/svg11.dtd" >
<svg xmlns="http://www.w3.org/2000/svg" xmlns:xlink="http://www.w3.org/1999/xlink" version="1.1">
<metadata>
Created by FontForge 20170731 at Wed Sep 19 15:26:31 2018
 By Aleksey,,,
Kei
</metadata>
<defs>
<font id="K-Gothic" horiz-adv-x="1024" vert-adv-y="1024" >
  <font-face 
    font-family="K Gothic"
    font-weight="400"
    font-stretch="normal"
    units-per-em="1024"
    panose-1="2 0 6 9 0 0 0 0 0 0"
    ascent="880"
    descent="-144"
    x-height="565"
    cap-height="806"
    bbox="-12 -148 1030 882"
    underline-thickness="48"
    underline-position="-168"
    unicode-range="U+0020-FFEE"
  />
<missing-glyph 
d="M402 258v220h220v-220h-220z" />
    <glyph glyph-name=".notdef" 
d="M402 258v220h220v-220h-220z" />
    <glyph glyph-name="glyph1" horiz-adv-x="0" 
 />
    <glyph glyph-name="nonmarkingreturn" horiz-adv-x="341" 
 />
    <glyph glyph-name="space" unicode=" " horiz-adv-x="512" 
 />
    <glyph glyph-name="exclam" unicode="!" horiz-adv-x="512" 
d="M246 -66q-24 4 -44 22q-14 18 -14 40q4 26 22 46q24 18 59 12q18 -4 32 -16q22 -24 16 -58l-12 -24l-6 -2v-4q-22 -16 -53 -16zM254 165l-20 10q-18 42 -12 94l4 82l-4 30v176l2 2v115l-4 80q2 24 14 42q14 12 37 10l20 -10q14 -16 10 -40l-2 -40l4 -34v-131l-2 -2v-160
l4 -102q-6 -28 -4 -58t-10 -54q-14 -12 -37 -10z" />
    <glyph glyph-name="quotedbl" unicode="&#x22;" horiz-adv-x="512" 
d="M279 615l-20 11q-13 16 -11 38l15 26h4q24 38 51 74t49 74q14 12 36 10l20 -10q12 -16 10 -38l-24 -46h-4l-26 -44l-20 -26h-4l-20 -32h-4l-16 -26q-14 -13 -36 -11zM106 619q-16 2 -28 13q-12 16 -10 38l10 20h4q26 34 45 71t43 73q14 12 36 10l20 -10q12 -16 10 -38
q-22 -38 -42 -75t-46 -73h-4l-8 -16q-14 -11 -30 -13z" />
    <glyph glyph-name="numbersign" unicode="#" horiz-adv-x="512" 
d="M265 -72l-21 10q-14 16 -10 40q8 52 15.5 104.5t13.5 104.5h-15l-72 -6q-14 -60 -21 -121.5t-23 -119.5q-14 -12 -36 -10l-20 10q-14 18 -12 42q6 48 14 97.5t16 97.5h-12l-40 -4l-20 10q-12 14 -10 36l10 20q40 18 86 18q0 64 9 125t13 123h-32l-50 -2q-16 2 -28 12
q-12 14 -10 36l10 20q26 12 58 11t60 5q8 57 11 114t23 109q14 12 36 10l20 -10q12 -16 10 -38q-8 -44 -11 -90t-9 -91h10q47 8 99 6q10 55 15 111t21 108q14 12 36 10l20 -10q14 -20 10 -46l-22 -173q46 2 84 -18q12 -14 10 -36l-10 -20q-16 -14 -40 -10q-28 8 -60 6
q-14 -64 -22 -130t-18 -132l22 -2h86q18 -2 32 -12q12 -14 10 -36l-10 -20q-16 -12 -38 -12l-2 2h-86l-24 2q-6 -60 -14 -121.5t-26 -119.5q-14 -12 -36 -10zM273 265v20q12 58 19 117t19 117h-40l-61 -10q-4 -62 -13 -123t-11 -125h26z" />
    <glyph glyph-name="dollar" unicode="$" horiz-adv-x="512" 
d="M254 -116l-20 10q-12 24 -13 52t-1 56q-34 6 -64 20t-54 40l-2 6l-12 8q-28 34 -37 75.5t-7 87.5q2 16 12 28q16 12 38 10l20 -10q12 -16 10 -38l-2 -22q0 -48 30 -82l4 -2q14 -21 36 -33l26 -6l4 103v86l2 58l-8 58l-38 40v4l-12 6l-44 44l-8 8q-18 22 -27 48t-7 56
q8 43 27 81t51 70q26 18 58 24q-6 52 12 92q14 12 37 10l20 -10q16 -44 12 -94q32 -12 58 -34l4 -10l22 -14l10 -10v-4h4q16 -24 30 -50.5t12 -58.5l-10 -20q-14 -12 -36 -10l-20 10q-12 40 -34 77h-4l-8 8v4l-20 12l-2 4h-4v-163l-2 -2v-80l2 -6l12 -6l2 -6l10 -6l2 -6h4
l18 -20v-4l16 -10l2 -6h4l18 -20v-4h4v-4h4q28 -34 42 -74t10 -88q-4 -26 -14 -49.5t-26 -43.5l-26 -24h-4v-4q-36 -24 -76 -36l-2 -42l2 -54l-10 -20q-14 -12 -37 -10zM305 96l34 21q36 36 30 90q-8 38 -32 68l-10 10v4h-4l-14 14v4h-6l-2 -42v-86l-4 -85h6zM218 503v12
l2 2v163l-2 8h-4l-16 -18l-10 -12h-4q-22 -41 -26 -87l12 -26h4v-4l6 -4l12 -8v-4l6 -4l10 -8l8 -12z" />
    <glyph glyph-name="percent" unicode="%" horiz-adv-x="512" 
d="M137 -80q-16 2 -27 12q-12 16 -10 38q66 215 122.5 432t146.5 422q14 12 35 10l19 -10q12 -16 10 -38q-56 -112 -90.5 -230.5t-60.5 -240.5h4q10 24 23 44h4l20 28l5 6q24 22 56 22l20 -10l17 -22v-4l6 -2q35 -52 42.5 -115t5.5 -129q-4 -37 -12.5 -70t-27.5 -61l-31 -24
l-37 -4q-42 8 -75 36q-21 32 -33.5 70.5t-14.5 78.5l11 92h-5q-29 -76 -53 -156.5t-41 -162.5q-14 -10 -29 -12zM389 56q15 30 19 65.5t2 73.5q-2 32 -7 64t-20 60l-6 2q-27 -38 -36.5 -85t-9.5 -97q9 -41 29 -75l27 -10zM127 353q-27 4 -50 20v4l-14 10q-21 38 -30.5 81
t-11.5 89q2 50 12.5 96.5t37.5 86.5h4l25 34q27 24 66 22l19 -10q29 -60 41.5 -125.5t10.5 -137.5q-6 -40 -14.5 -78t-29.5 -70h-4v-4q-27 -20 -62 -18zM139 431v4q13 32 19 68t4 76q-2 30 -8 59.5t-13 57.5h-8q-23 -32 -29 -72.5t-8 -82.5q6 -28 11 -55t18 -51z" />
    <glyph glyph-name="ampersand" unicode="&#x26;" horiz-adv-x="512" 
d="M171 -20q-41 10 -71 44q-28 46 -41 100.5t-11 114.5q11 58 32.5 111t59.5 99l5 2v8q-20 54 -36 108t-24 113q6 36 23.5 65t42.5 57q20 14 42.5 22t51.5 6q38 2 64 -22l9 -10q15 -28 20 -61t3 -69q-8 -57 -27.5 -108t-53.5 -95l-16 -18h-5v-4h-2v-6l20 -22v-4l5 -4
q17 -22 28.5 -47t22.5 -49h4l13 -24h3l6 -6l19 -22q3 30 3 60t14 56q13 12 33 10l19 -10q13 -18 9 -44q-2 -44 -5.5 -87t-9.5 -85l21 -22l4 -10l7 -4q15 -19 30 -37l2 -24l-9 -20q-15 -14 -36 -12l-19 10l-31 34l-14 -26q-20 -22 -46 -36q-36 -16 -75 -26t-84 -6zM302 86
l16 12q13 23 17 51q-33 52 -69.5 103t-64.5 107l-9 10l-6 8h-5q-28 -42 -44 -87t-16 -99q5 -30 12.5 -60.5t22.5 -56.5q29 -24 70 -16zM205 521l4 6q17 26 35 54q11 32 17.5 66.5t6.5 72.5l-10 28l-38 4l-20 -10l-2 -4q-21 -20 -34 -46l-6 -26q12 -36 21 -73.5t24 -73.5z
" />
    <glyph glyph-name="quotesingle" unicode="'" horiz-adv-x="512" 
d="M114 587q-16 2 -28 12q-12 14 -10 37l10 20l18 20l6 26q-26 14 -38 40l-4 28q4 20 16 36q26 24 64 20l24 -12l18 -24l4 -40q-2 -38 -8 -74t-30 -65l-24 -20z" />
    <glyph glyph-name="parenleft" unicode="(" horiz-adv-x="512" 
d="M464 -72q-29 6 -51 32l-8 8v4l-21 16l-13 20l-6 4l-15 16l-25 44h-4q-40 61 -57.5 132t-23.5 145v84q16 98 42 194.5t98 170.5l6 2v4q25 28 59 30l19 -10q11 -14 10 -36l-10 -20l-32 -30h-4v-4l-6 -6l-11 -14h-4l-4 -10h-4l-19 -34h-4q-28 -75 -45.5 -152t-15.5 -161
q4 -76 25 -146t65 -131l6 -2v-4h3l4 -10l6 -4l6 -4l3 -10l25 -20l2 -6l6 -2l2 -6h4v-4l21 -12q11 -14 9 -36l-9 -20q-14 -10 -29 -12z" />
    <glyph glyph-name="parenright" unicode=")" horiz-adv-x="512" 
d="M84 -108q-18 2 -32 14q-12 14 -10 36q54 96 100 198.5t56 212.5v80q-10 78 -38 151.5t-72 139.5h-4v4l-50 36q-12 14 -10 36l10 20q16 12 38 10q40 -18 72 -52q56 -76 89.5 -160.5t43.5 -176.5v-96q-10 -118 -58.5 -226.5t-104.5 -214.5q-14 -10 -30 -12z" />
    <glyph glyph-name="asterisk" unicode="*" horiz-adv-x="512" 
d="M242 100l-20 10q-12 17 -14 37l2 2v96l4 56h-4q-38 -26 -76 -51t-84 -33l-20 10q-12 14 -10 36l10 20q40 20 78 44t76 50l2 6q-38 14 -74 31t-70 41q-12 14 -10 36l10 20q16 12 38 10q34 -18 68 -35t72 -29l2 66l-2 78q2 16 12 29q14 12 37 10l20 -10q12 -37 11 -79
t1 -82h4q36 24 71 52t79 36l20 -10q12 -14 10 -36l-10 -20l-76 -48v-4l-50 -36l-20 -18h2l34 -28l60 -28t58 -32q16 -18 12 -42l-10 -20q-14 -12 -36 -10l-20 10q-22 16 -46 28q-24 10 -46 21t-44 23l-4 -70v-106l-10 -21q-14 -12 -37 -10z" />
    <glyph glyph-name="plus" unicode="+" horiz-adv-x="512" 
d="M259 115q-17 2 -29 12q-14 18 -12 42q10 40 9 83t3 85h-42l-2 -2h-80l-36 -4q-26 0 -46 14q-12 14 -10 36l10 20q18 14 44 10l10 -2l22 4h80l50 2v72l-12 106l10 20q14 13 37 10l20 -10q16 -26 18 -57t6 -61v-80h96l66 6l20 -10q12 -16 10 -38l-10 -20q-36 -16 -78 -16
h-104q-4 -54 -3 -108t-17 -102q-14 -10 -30 -12z" />
    <glyph glyph-name="comma" unicode="," horiz-adv-x="512" 
d="M110 -122l-22 12q-8 10 -6 26q28 34 40 74q-20 4 -36 18q-20 26 -16 64q4 22 20 38q26 23 64 17l30 -17q24 -24 18 -62q-12 -42 -27 -84t-45 -78z" />
    <glyph glyph-name="hyphen" unicode="-" horiz-adv-x="512" 
d="M54 339l-22 12q-8 10 -6 26q6 14 20 20l62 2h116l2 2h85l2 2h82l72 2q14 -6 20 -20v-16q-6 -14 -20 -20l-64 -4h-82l-2 -2h-85l-2 -2h-116z" />
    <glyph glyph-name="period" unicode="." horiz-adv-x="512" 
d="M120 -4q-20 4 -36 16q-20 22 -22 52q4 18 16 34q26 21 64 15l30 -17q18 -24 12 -56l-12 -24l-6 -2v-4q-20 -14 -46 -14z" />
    <glyph glyph-name="slash" unicode="/" horiz-adv-x="512" 
d="M48 -120l-20 10q-10 14 -12 32q94 233 199.5 461t211.5 457q14 12 36 10l20 -10q12 -16 10 -38q-102 -229 -206.5 -455t-200.5 -455q-16 -14 -38 -12z" />
    <glyph glyph-name="zero" unicode="0" horiz-adv-x="512" 
d="M234 32q-30 4 -56 19t-48 37l-2 6h-4l-6 6q-42 53 -63 113t-21 128v80q8 76 23 151.5t65 137.5q24 20 49 37t51 31l2 4q26 16 61 10q38 -10 70 -38l20 -20v-4h4q38 -46 50 -104.5t16 -118.5v-130q4 -78 -18 -147t-62 -132l-10 -10l-32 -26q-38 -28 -89 -30zM246 113
l51 30q38 52 56 113t14 129v114q-4 48 -12 93.5t-34 83.5l-6 8h-4q-16 18 -38 28q-41 -16 -77 -44l-2 -4l-22 -20h-4q-34 -67 -45 -142t-11 -153q-2 -54 14 -101t44 -89l6 -2v-4l8 -4l2 -6q24 -26 58 -33z" />
    <glyph glyph-name="one" unicode="1" horiz-adv-x="512" 
d="M226 4l-20 10q-14 16 -14 38q8 131 14 262t14 263v97l2 2v80q2 16 12 28q14 12 37 10l20 -10l10 -20v-96l-2 -2v-97q-8 -138 -14 -277t-22 -278q-15 -12 -37 -10z" />
    <glyph glyph-name="two" unicode="2" horiz-adv-x="512" 
d="M112 -2q-16 2 -28 12q-12 14 -10 36q50 159 153.5 296t131.5 302q-8 20 -24 36l-40 30v4q-14 14 -34 10q-27 -6 -50 -18t-45 -28v-4h-4q-20 -38 -16 -89l2 -28l-10 -20q-14 -12 -36 -10l-20 10q-20 42 -14 95q4 26 12 51t26 45l52 40q30 16 63 26t72 8q28 -8 50 -26l8 -8
v-4h4v-4l24 -14v-4l10 -4v-4l6 -2v-4h4v-4h4q24 -28 31 -64.5t3 -76.5q-10 -58 -37 -109t-59 -99h-4q-22 -42 -49 -83t-54 -83h-4l-54 -115h8q48 4 95.5 10t99.5 4q40 -6 74 -24q12 -14 10 -36l-10 -20q-16 -10 -34 -12q-26 10 -54 13t-58 1q-48 -8 -99.5 -12t-95.5 -20z
" />
    <glyph glyph-name="three" unicode="3" horiz-adv-x="512" 
d="M228 4q-34 4 -63 19t-55 39l-36 51l-26 88q2 16 12 28q14 12 36 10l20 -10q12 -24 19 -50t21 -50h4l10 -12v-4h4v-5l16 -8v-4q30 -14 69 -14q42 4 76 31q32 24 39 59t3 73q-6 28 -22 51t-32 47l-4 2v4l-6 2v4q-44 20 -93 30q-12 14 -10 36l10 20q28 10 54.5 25t48.5 37
q20 32 41 63t17 74q-6 32 -36 56q-32 36 -84 28q-45 -18 -83 -50q-16 -22 -23 -47.5t-17 -49.5q-14 -12 -36 -10l-20 10q-14 20 -10 49q8 30 20 57t32 51h4l4 6q40 30 84.5 50t98.5 12q34 -10 64 -32l20 -16l20 -20q24 -28 34 -62t6 -75q-8 -42 -31 -78t-49 -72l-22 -20
l-4 -6l10 -6v-4l6 -2v-4l6 -2l12 -12q36 -46 56 -98t12 -116q-6 -26 -15 -51.5t-27 -47.5h-4v-4h-4l-2 -6h-4v-4l-6 -6h-4v-4l-20 -12v-4q-30 -18 -65 -27t-76 -7z" />
    <glyph glyph-name="four" unicode="4" horiz-adv-x="512" 
d="M333 -4q-16 2 -28 12q-18 30 -14 68v97l2 62h-26q-53 -4 -103 -12t-100 -20q-16 2 -28 12q-12 16 -12 36q18 132 29 267.5t31 267.5q14 12 36 10l20 -10q16 -26 12 -62q-14 -107 -22 -215t-20 -216h10q42 10 85 14t88 10l2 2v110l8 130v83q6 40 8 81t16 77q14 12 36 10
l20 -10q14 -18 10 -44l-12 -122v-83l-8 -130v-108q26 -6 52 -11t48 -17q12 -16 10 -38l-10 -20q-14 -12 -36 -10q-32 10 -66 14l-2 -66v-81l4 -56l-10 -20q-14 -10 -30 -12z" />
    <glyph glyph-name="five" unicode="5" horiz-adv-x="512" 
d="M202 20q-34 4 -65 20t-59 38l-6 12l-8 4q-24 27 -24 61l10 20q16 12 38 10l20 -10q10 -22 28 -40q22 -20 48 -29.5t58 -7.5q29 6 54 17.5t49 25.5q30 32 44 70t8 86q-4 28 -12 53t-28 47q-22 14 -46 24t-52 8q-51 -4 -91 -36v-4q-22 -18 -36 -44q-14 -12 -36 -10l-20 10
q-16 22 -12 52q16 104 27 210.5t31 208.5q14 12 36 10l20 -10q14 -18 10 -42l-4 -24l68 -2q41 0 78 7t75 9l20 -10q12 -14 10 -36l-10 -20q-50 -18 -106 -23t-115 -5l-24 2q-8 -49 -14 -97t-10 -96h2q30 18 66.5 24t74.5 4q32 -8 61 -21t55 -33l4 -10l6 -2q22 -30 34 -64
t16 -72v-86q-8 -36 -27 -66t-39 -61l-6 -6h-4v-4h-4v-4q-42 -26 -89 -44t-104 -14z" />
    <glyph glyph-name="six" unicode="6" horiz-adv-x="512" 
d="M232 14q-36 2 -66 21t-56 45q-32 39 -44 87t-20 96v92q8 88 31 174t83 157q44 36 90.5 63t108.5 19q34 -4 64 -20q12 -14 10 -36l-10 -20q-16 -12 -38 -10q-34 10 -74 8q-40 -16 -75 -44l-2 -4l-10 -4v-4l-26 -31h-4q-16 -26 -27 -55t-19 -59h6q42 12 92 8q41 -4 77 -20
t68 -40l6 -6v-4h4v-4h4l6 -6q16 -22 26 -46t16 -50v-82q0 -44 -10 -83t-34 -72l-14 -12h-4v-4q-34 -28 -73 -41t-86 -13zM319 115q28 16 44 44q10 36 11 74t1 78q-8 30 -24 56l-6 2v4h-4v4q-32 24 -68.5 35t-80.5 7q-32 -10 -62 -22q-4 -30 -5 -62t-1 -64q6 -38 15 -76
t35 -68l10 -6q14 -17 32 -25l41 -4q34 6 62 23z" />
    <glyph glyph-name="seven" unicode="7" horiz-adv-x="512" 
d="M196 -10l-20 10q-12 16 -12 36q40 171 83.5 343t105.5 337h-62l-16 -4h-111l-24 2v-12q8 -44 14 -88.5t8 -90.5l-10 -20q-14 -12 -36 -10l-20 10q-16 62 -24 126.5t-18 128.5q2 16 12 28q22 16 54 10l52 -6h97q38 2 77 6t77 6l20 -10q14 -18 10 -44q-78 -181 -124 -370
t-97 -378q-14 -12 -36 -10z" />
    <glyph glyph-name="eight" unicode="8" horiz-adv-x="512" 
d="M261 12q-41 6 -78 20t-69 38v4l-16 10q-26 29 -32 66t-4 77q14 56 43 107t65 99q-42 22 -80 54q-24 26 -34 57t-8 67q2 35 17 65t39 54q36 28 75 49t90 15q36 -4 66 -18t60 -32l16 -14l18 -22q16 0 28 -10q12 -14 10 -36l-10 -20l-42 -33l-24 -18h-4l-2 -6h-4l-6 -12
l-18 -16l-8 -8h-4q-14 -24 -30 -47t-26 -47l42 -28l26 -24l6 -6l6 -6v-4h4l6 -12h4q34 -54 63 -111t21 -127q-4 -41 -34 -71l-6 -2v-4l-6 -6q-32 -28 -73 -37t-87 -5zM351 102l22 19h4v4h4v4h4q6 30 4 64q-12 38 -33 73t-43 69l-4 2l-12 12q-26 24 -57 40l-8 -10l-12 -14h-4
q-26 -44 -53 -89t-23 -103l16 -34l12 -8v-4q34 -19 70.5 -30t78.5 -7q18 2 34 12zM220 499v4l69 100l36 37l8 8l24 22q-26 24 -57 36t-68 10q-42 -18 -78 -48l-2 -4l-18 -22q-8 -27 -8 -57q4 -20 14 -38h4l10 -10v-4q30 -22 66 -34z" />
    <glyph glyph-name="nine" unicode="9" horiz-adv-x="512" 
d="M236 12l-20 10q-10 16 -12 34q16 91 40.5 179t50.5 174h-4q-28 -12 -57.5 -20t-63.5 -8q-30 2 -55 13t-47 31q-20 28 -30 59t-10 67q0 44 14 82.5t44 70.5l18 18l6 6q34 30 72 47t87 13q34 -6 66 -17t62 -29l14 -12q16 -22 26 -45t10 -51q-44 -151 -93 -304t-81 -308
q-14 -12 -37 -10zM259 481q26 12 44 38l12 14q16 28 31 55t21 60l-22 34q-26 12 -54 21t-61 7q-34 -12 -64 -38l-2 -4l-6 -6l-20 -22l-6 -6h-4q-14 -23 -18 -49t-4 -54q6 -32 28 -58q26 -16 60 -14z" />
    <glyph glyph-name="colon" unicode=":" horiz-adv-x="512" 
d="M234 80q-20 4 -36 16q-18 23 -14 53t30 50q16 14 38 12q25 -8 47 -20l8 -8q20 -22 14 -56l-14 -25q-30 -28 -73 -22zM240 541q-24 2 -42 16q-14 18 -14 40q4 22 16 41l14 14q20 14 49 10l28 -14q20 -27 14 -63l-12 -24q-24 -16 -53 -20z" />
    <glyph glyph-name="semicolon" unicode=";" horiz-adv-x="512" 
d="M210 -24q-14 6 -20 20v18q26 26 44 58l4 24q-24 4 -42 19q-16 22 -12 50q4 22 18 40q26 22 61 22l20 -10v-4l28 -18q20 -24 14 -60l-10 -20h-4v-5l-12 -8q-2 -32 -15 -60t-38 -52q-14 -16 -36 -14zM246 537q-26 4 -46 26q-12 16 -14 36q4 31 24 53q24 18 59 14l36 -20
q18 -25 14 -57l-18 -34h-4v-4q-22 -14 -51 -14z" />
    <glyph glyph-name="less" unicode="&#x3c;" horiz-adv-x="512" 
d="M453 12q-16 2 -28 12l-40 48q-18 24 -44 45v4l-24 18l-16 14l-8 14l-6 4l-18 14v4h-4v4h-4q-35 34 -77 58t-76 58v4l-40 26q-20 24 -20 54l12 22l24 22l32 34h4l20 28h4l20 28l56 46l2 6l49 53l24 30l30 30h4v4h4l2 6h4l16 22l16 14q18 16 30 38q22 28 56 28l20 -10
q12 -14 10 -36l-10 -20q-24 -30 -50 -58h-4v-4l-10 -4l-2 -6h-4l-4 -10h-4v-4h-4l-2 -6h-4l-6 -10l-6 -2v-4l-18 -19l-10 -12h-4l-12 -20h-4l-4 -6l-12 -16h-4l-4 -10h-4v-4l-12 -14q-26 -18 -49 -44l-10 -4v-4q-22 -16 -36 -40h-4l-4 -10l-18 -20h-4l-4 -6l-12 -16h-2v-4
l4 -6l28 -18l14 -14v-4l99 -64v-4l10 -4v-4h4v-4h4v-4h4v-4l12 -8l14 -12v-4h4v-4l6 -4l4 -8l14 -8l8 -8v-4l10 -4v-4h4v-4l10 -6l30 -28v-4l10 -6l6 -12l6 -2q20 -27 42 -51l2 -26l-10 -20q-14 -10 -32 -12z" />
    <glyph glyph-name="equal" unicode="=" horiz-adv-x="512" 
d="M39 207l-19 10q-12 14 -10 36l10 20q41 14 87 16t91 10h91l64 -2l118 4l19 -10q12 -14 10 -36l-10 -20q-49 -14 -101.5 -15t-105.5 -1l-79 2q-41 -6 -81.5 -10t-83.5 -4zM51 455q-16 2 -27 12q-12 14 -10 36l10 20l19 10h80l67 6h79l28 4h111q27 8 59 6l19 -10
q12 -14 10 -36l-10 -20q-33 -16 -72 -18h-112l-27 -4h-79l-67 -6h-78z" />
    <glyph glyph-name="greater" unicode="&#x3e;" horiz-adv-x="512" 
d="M84 -26q-16 2 -28 12q-12 14 -10 36q6 20 24 34l6 2l4 6l100 109l16 16h4q16 22 34 43t35 43l6 2l2 6l16 18h4l14 18l46 48l16 16h4q14 20 22 42l-16 20h-4v4l-28 18l-12 12l-12 10v4l-68 50l-7 6l-10 10v4l-22 14v4l-12 6l-2 6h-4q-38 47 -87 73t-79 74l-2 26l10 20
q14 12 36 10l20 -10q26 -36 65 -58t71 -54v-4l10 -4l19 -20v-4l26 -16l2 -7l8 -4l10 -10v-4l38 -26l22 -18v-4l20 -12v-4l6 -4l50 -42l22 -28v-4h4q22 -20 20 -48l-10 -20q-26 -22 -42 -52h-4l-4 -10l-8 -8l-36 -38l-18 -18q-18 -14 -30 -32h-4v-4l-14 -12h-4
q-8 -20 -22 -36l-16 -18h-4l-6 -12l-23 -24l-8 -8h-4v-4l-16 -19l-14 -14l-6 -6l-12 -14l-36 -38l-34 -34h-4v-4q-14 -10 -30 -12z" />
    <glyph glyph-name="question" unicode="?" horiz-adv-x="512" 
d="M250 -50q-26 4 -48 18q-16 20 -18 46q4 22 18 42q22 20 57 14q24 -6 42 -20v-4h4q16 -20 12 -50l-12 -22q-24 -22 -55 -24zM244 161l-22 12q-16 38 -12 84q0 60 28.5 109t66.5 93l36 30l22 20l20 20h4q16 26 14 58q-12 34 -34 65l-18 12v4q-42 28 -97 22q-32 -2 -61 -14
t-53 -34q-20 -19 -14 -47q12 -16 10 -38l-10 -20q-14 -12 -36 -10l-20 10q-30 40 -22 97q8 32 30 58l24 18v4q42 32 91 44t106 10q34 -4 64 -19t58 -37l14 -14q22 -32 36 -68.5t10 -80.5q-12 -40 -36 -74l-6 -6l-14 -14l-22 -20l-6 -6l-12 -6v-4l-28 -18l-4 -10h-4l-8 -16
h-4q-24 -32 -36 -69t-10 -81l4 -34l-10 -20q-16 -12 -39 -10z" />
    <glyph glyph-name="at" unicode="@" horiz-adv-x="512" 
d="M254 -48q-34 4 -60.5 18t-51.5 36q-50 66 -79 144.5t-33 164.5v88q8 92 33 180.5t82 162.5l70 54q30 8 68 6q17 -4 31 -14v-4l11 -6l25 -26v-4h4v-4h4v-4h4l9 -12q43 -56 70 -119.5t40 -131.5v-118q-4 -36 -8.5 -71t-24.5 -63l-9 -12h-4v-4h-4v-4l-10 -10
q-21 -16 -50 -14q-17 4 -32 16l-16 16l-9 -14l-14 -14q-36 -32 -89 -28q-29 6 -54 26q-15 20 -23 44t-12 50v112q8 54 27 104t54 94q19 16 42.5 25.5t50.5 4.5q25 -6 45 -24l30 -50l4 -2q14 -16 10 -40q-6 -40 -9 -83t-3 -87l10 -58h4q17 42 19 92v104q-13 60 -39 115.5
t-65 105.5l-13 12v4h-4v4h-4l-13 14h-20l-35 -28l-16 -14l-11 -14l-18 -20q-32 -77 -49.5 -159t-13.5 -170q4 -72 27 -137t63 -124l4 -2q16 -14 35 -24l37 -6l27 12v4q20 16 33 38h4q13 37 34 69q14 12 35 10l19 -10q14 -16 10 -40l-39 -77l-5 -6l-21 -28l-10 -4l-4 -6
l-4 -6q-21 -16 -44 -26t-52 -8zM240 243l20 16q29 58 31 125t9 133l-17 26h-12q-23 -12 -35 -38q-14 -28 -24.5 -58t-14.5 -62v-96l16 -46l21 -4z" />
    <glyph glyph-name="A" unicode="A" horiz-adv-x="512" 
d="M82 -6l-20 10q-16 22 -12 52q42 185 76 370t96 364q14 12 37 10q18 -4 32 -14q54 -187 97 -374t97 -374l-10 -20q-14 -12 -36 -10l-20 10q-24 54 -40 114.5t-32 118.5h-38q-36 -2 -70.5 -8t-70.5 -8q-12 -58 -25 -115.5t-25 -115.5q-14 -12 -36 -10zM329 329v6
q-28 72 -42 148t-28 155h-5q-22 -79 -39 -159t-29 -162h28q28 6 56.5 9t58.5 3z" />
    <glyph glyph-name="B" unicode="B" horiz-adv-x="512" 
d="M100 -6l-20 10q-16 20 -16 48t-2 54v81l-4 32v228l2 2v80l6 88q-2 35 -5 69t-1 70q2 16 12 28q14 12 36 10l30 -4q38 10 82 8q41 -10 83 -17t76 -31v-4h4l10 -12l8 -8l6 -12h4q28 -32 42 -69.5t10 -81.5q-6 -42 -36 -74h-4v-4l-12 -6v-4l-12 -6v-4l-46 -34l8 -4l8 -8v-4
l16 -10l2 -6h4v-4l10 -6l20 -22q28 -44 41 -93t9 -105q-10 -30 -28 -59h-4l-6 -12l-12 -6v-4l-10 -4v-4l-12 -6v-4q-46 -36 -100.5 -50t-114.5 -12l-44 2l-4 -6q-14 -12 -36 -10zM321 113l38 30l18 10q22 30 16 70q-6 30 -15 58t-31 52h-4v4h-4l-8 8v4h-4v4q-24 26 -55.5 35
t-69.5 5l-66 -4v-162l4 -32v-80l2 -25l92 -4q47 6 87 27zM287 489q22 10 43 24t41 32q20 24 14 58q-14 43 -48 75l-26 22q-32 6 -65.5 13t-67.5 7l-40 -8v-22q4 -28 5 -58.5t1 -60.5q-4 -24 -5 -50t-1 -52h26q32 2 63.5 6t59.5 14z" />
    <glyph glyph-name="C" unicode="C" horiz-adv-x="512" 
d="M267 18q-27 4 -51 13t-44 25v4h-4q-34 34 -56 79q-20 70 -33 142t-15 148q8 76 25 149.5t69 131.5l12 6v4q32 28 72.5 37t84.5 5q40 -8 74 -36l10 -10l20 -22q22 -32 34 -68.5t12 -78.5l-10 -20q-14 -12 -36 -10l-20 10q-12 36 -22 74.5t-42 66.5q-32 22 -76 16
q-25 -6 -47 -20l-4 -6q-30 -26 -44 -63q-14 -48 -24 -98t-10 -104q8 -68 20 -137t48 -127h4l6 -6v-4q34 -27 79 -23q30 21 56 49q28 42 41 90t25 96q14 12 36 10l20 -10q16 -24 10 -56q-10 -46 -25 -90t-41 -85h-4l-6 -12l-36 -36l-10 -4v-4q-20 -18 -45 -23t-53 -3z" />
    <glyph glyph-name="D" unicode="D" horiz-adv-x="512" 
d="M128 -12q-24 6 -46 18q-10 12 -12 28v163q-2 42 -6 84t-10 84v162l-2 2v143l-2 2v92q2 16 12 28q14 12 36 10l20 -10v-2h10q40 10 86 6q36 -10 70.5 -27t66.5 -41l2 -6l10 -4l10 -10l14 -14v-4h4l4 -10h4q42 -59 57 -127t19 -140v-88q-8 -54 -26 -103t-54 -91l-8 -8h-4
v-4l-16 -17l-24 -20h-4v-4h-4v-4q-44 -40 -97.5 -57t-109.5 -31zM240 104l31 21v4l24 16v4l10 4l2 6q20 16 35 36t29 42q16 38 22 81t4 89q-2 62 -15 121t-49 110l-4 2v4h-4l-16 16v4l-14 8v4q-32 18 -64.5 33t-72.5 11l-28 -8l-2 -30l2 -2v-143l2 -2v-162q6 -42 10 -84
t6 -84v-131h6z" />
    <glyph glyph-name="E" unicode="E" horiz-adv-x="512" 
d="M110 2l-20 10q-10 12 -12 28v199l-2 2v158l-2 2v120l2 2v105q-2 30 -10 58t-6 60l16 28q14 12 36 10l12 -4h177q28 0 56 5t58 3q18 -2 32 -12q12 -14 10 -36l-10 -20q-18 -12 -40 -12l-28 2q-34 -6 -72 -8h-163v-8q8 -28 10 -58v-121l-2 -48h62q45 2 90 7t91 3
q16 -2 28 -12q12 -14 10 -36l-10 -20q-16 -10 -34 -12l-56 2q-44 -4 -88.5 -8t-90.5 -2v-140l2 -2v-165h46l38 4h81l138 4l20 -10q12 -14 10 -36l-10 -20q-34 -14 -74 -13t-78 -3h-81l-110 -6l-8 2z" />
    <glyph glyph-name="F" unicode="F" horiz-adv-x="512" 
d="M98 -4l-20 10q-10 12 -12 28v115l2 46q-2 34 -6 66t-4 66v102l2 2v80l2 2v123q-2 32 -5 64t-11 62l10 20q18 14 44 10l2 -2h183l28 4h140l20 -10q12 -14 10 -36l-10 -20q-14 -10 -30 -12h-124l-28 -4h-157v-14l6 -54v-139l-2 -62l32 -2l68 12h143l20 -10q12 -14 10 -36
l-10 -20q-14 -10 -30 -12h-125q-44 -10 -90 -12l-20 2v-30q2 -48 7 -95t3 -97l-2 -2v-115l-10 -20q-14 -12 -36 -10z" />
    <glyph glyph-name="G" unicode="G" horiz-adv-x="512" 
d="M421 -10q-16 2 -28 12q-14 18 -10 42l4 66h-4l-4 -8l-24 -26q-30 -22 -65.5 -32t-75.5 -8q-36 8 -66 34l-2 6h-4l-6 6q-50 79 -65 168t-17 183q10 78 28 156.5t74 138.5q22 24 52 40q38 22 89 16q38 -6 70 -26v-4l12 -6l2 -6l8 -4l24 -26q22 -30 39 -63.5t19 -71.5
l-10 -20q-14 -12 -36 -10l-20 10q-12 28 -25 57.5t-33 55.5h-4l-10 10v4h-4l-24 18l-40 4q-25 -8 -45 -26l-2 -4l-22 -22l-6 -4q-30 -65 -44 -135t-14 -144q8 -62 19 -123t43 -113l6 -2l2 -6q16 -14 40 -12q47 2 77 40q16 20 23 45t17 49q12 10 28 10v6l-10 96h-20l-80 -4
q-16 2 -29 12q-12 14 -10 36l10 20q55 12 112 15t113 11l20 -10q12 -14 10 -36l-10 -20q-16 -12 -38 -12v-22q6 -46 10 -94t2 -98l-2 -2v-89q2 -36 -14 -66q-14 -10 -30 -12z" />
    <glyph glyph-name="H" unicode="H" horiz-adv-x="512" 
d="M405 2l-20 10q-10 12 -12 28v107l8 50v218h-86l-159 -14v-36l2 -2v-88l-2 -2v-90l8 -145l-10 -20q-14 -12 -36 -10l-20 10q-14 36 -15 76.5t-5 80.5v106l2 74l-2 2v188l2 2v101l-4 86q2 30 16 56q14 12 36 10l20 -10q14 -18 10 -42l-4 -60l4 -32v-117l-2 -60h4l149 14h98
l2 16v155l-4 84q0 26 14 46q14 12 36 10l20 -10q14 -18 10 -44l-2 -32l4 -46v-171l-8 -98v-214l-8 -50v-107l-10 -20q-14 -12 -36 -10z" />
    <glyph glyph-name="I" unicode="I" horiz-adv-x="512" 
d="M329 8q-26 6 -54.5 7t-58.5 1l-50 -6l-20 10q-12 14 -10 36l10 20q28 16 62 16v8l-2 57l8 144v86l-2 2v162l2 2v95l-4 56q-30 0 -54 14q-12 14 -10 36l10 20q18 14 44 10l69 -2q30 10 64 10l20 -10q12 -16 10 -38l-10 -20q-28 -12 -60 -18l-2 -48l2 -2v-111l-2 -2v-146
l2 -2v-102l-8 -183l2 -16q40 0 72 -18q12 -14 10 -36l-10 -20q-14 -10 -30 -12z" />
    <glyph glyph-name="J" unicode="J" horiz-adv-x="512" 
d="M206 12q-26 2 -50 13t-44 31q-36 50 -54 107.5t-12 123.5q0 24 14 44q14 12 36 10l20 -10q14 -20 10 -50l-2 -60q8 -28 18 -55t26 -53l4 -3q8 -12 22 -16l65 -4q30 -2 56 10l6 8h4l18 25h4q18 40 22 86l8 92l-4 88l6 40v80q0 62 -5 124.5t-7 124.5q2 16 12 28
q14 12 36 10l20 -10q12 -64 16 -132.5t6 -136.5v-96q-8 -40 -6 -84l4 -64q-4 -58 -14 -114t-48 -103l-6 -2v-4h-4l-8 -12l-34 -26q-32 -8 -66.5 -9t-68.5 -1z" />
    <glyph glyph-name="K" unicode="K" horiz-adv-x="512" 
d="M102 -4l-20 10q-10 16 -12 34l2 26l-4 61v80l-4 30v160l-2 2v231l-2 2v102q0 32 16 60q14 12 36 10l20 -10q14 -18 10 -42l-4 -26v-86l2 -2v-179h4q26 54 61 105t74 102q26 30 49 64t45 68q14 12 36 10l20 -10q12 -16 10 -38l-56 -90l-22 -30h-4l-16 -27l-72 -94
q-21 -28 -31 -60l6 -10l6 -2q25 -32 43 -68t38 -70h4q22 -36 42 -74t36 -76h4q16 -28 34 -57.5t24 -61.5l-10 -20q-16 -12 -38 -10l-20 10q-54 90 -104.5 182.5t-104.5 182.5l-6 2q-26 -40 -44 -84l-6 -4v-54l4 -30v-80l4 -101q-2 -16 -12 -28q-14 -12 -36 -10z" />
    <glyph glyph-name="L" unicode="L" horiz-adv-x="512" 
d="M122 8q-26 -2 -44 12q-20 32 -14 74l2 2v103l-2 2v250l8 108v119l-4 74q0 26 14 46q14 12 36 10l20 -10q14 -18 10 -44l-2 -42l4 -26v-135l-8 -108v-234l2 -2v-121h14l66 10h171l56 2l20 -10q14 -16 12 -38l-10 -20q-32 -16 -70 -12h-173q-26 -2 -53 -7t-55 -3z" />
    <glyph glyph-name="M" unicode="M" horiz-adv-x="512" 
d="M240 6l-20 10q-42 133 -60 269t-40 272h-4l-2 -40v-130l-2 -2v-90l-2 -2v-84q0 -42 6 -83.5t6 -83.5l-10 -20q-14 -12 -36 -10l-20 10q-14 42 -18 87.5t-6 91.5v100l2 2v90l2 2v130l4 42v101l-2 2v98q2 16 12 28q28 14 62 16l20 -10q50 -128 71 -264.5t39 -270.5l6 -2
q23 132 49 263.5t52 261.5q16 14 40 10l4 10q14 12 36 10l20 -10q12 -36 11 -77t5 -79v-107l-8 -164l4 -38v-124q4 -46 5 -93.5t13 -89.5l-10 -20q-16 -10 -34 -12q-16 2 -28 12q-20 44 -20 95.5t-4 99.5v124l-4 80l6 128h-4q-28 -124 -48 -251t-36 -254l-12 -8l-8 -16
q-14 -12 -37 -10z" />
    <glyph glyph-name="N" unicode="N" horiz-adv-x="512" 
d="M98 -4l-20 10q-14 22 -14 48t-6 50v105l-6 66v82l-2 2v377q-2 34 14 62q14 12 36 10q18 -4 32 -14q78 -146 125.5 -305.5t121.5 -307.5h4l8 118v341l-10 116q0 26 14 46q14 12 36 10l20 -10q14 -18 10 -44l-2 -8l10 -102v-357l-10 -158q10 -47 14 -93l-10 -20
q-30 -16 -64 -18l-20 10q-78 145 -141.5 296t-105.5 311h-4v-252l2 -2v-82l6 -66v-104l8 -87l-10 -20q-14 -12 -36 -10z" />
    <glyph glyph-name="O" unicode="O" horiz-adv-x="512" 
d="M248 24q-30 4 -55 16t-47 34l-2 6l-6 4q-54 59 -69 133t-23 150v132q14 64 39 123.5t65 113.5l20 20q22 18 44 33t53 13q52 2 90 -30q30 -32 48 -70q20 -50 36 -104.5t28 -108.5v-88q-6 -86 -26 -169t-70 -156h-4l-6 -12l-12 -10q-22 -16 -47 -24t-56 -6zM299 115
q60 78 76 173t16 193q-16 62 -34 123.5t-58 111.5q-20 10 -45 6l-18 -12v-4l-40 -40h-4q-20 -43 -39 -86t-29 -89v-116l16 -112t36 -104l6 -4l6 -10h4q16 -20 34 -35q22 -8 49 -8z" />
    <glyph glyph-name="P" unicode="P" horiz-adv-x="512" 
d="M98 8l-20 10q-16 62 -16 131.5t-6 135.5v134q8 42 10 86v169l-6 22v82q2 16 12 28q14 12 36 10l20 -10v-4h4q32 12 68 16t75 2q34 -2 65 -12t57 -30v-4l8 -4l2 -6l6 -2v-4h4v-4h4l10 -12q18 -26 30 -55t18 -59v-123q-6 -46 -34 -84h-4l-6 -12l-8 -8l-12 -6v-4
q-50 -28 -108.5 -44t-120.5 -14l-52 10v-50l10 -255l-10 -20q-14 -12 -36 -10zM347 443q34 14 48 48l6 22v104q-10 45 -38 83l-6 8l-6 2l-2 6q-26 18 -57 22t-66 4q-46 -2 -88 -18v-20l6 -22v-185l-6 -74q46 -14 98 -12q29 6 57 14t54 18z" />
    <glyph glyph-name="Q" unicode="Q" horiz-adv-x="512" 
d="M451 18l-20 10l-44 74h-4q-28 -42 -74 -62q-30 -14 -65 -14q-28 6 -54 19t-50 33v4h-4v4h-4v4h-4q-62 71 -80 159t-18 180q-6 92 28 176.5t96 152.5l6 2v4l12 10q28 18 61.5 25t69.5 3q28 -4 52 -22l32 -30v-4l6 -4q30 -38 46 -81.5t22 -91.5v-166q-6 -56 -13 -113
t-23 -109l16 -26h4q16 -26 33 -50.5t21 -54.5l-10 -20q-16 -14 -38 -12zM283 117l22 12l2 6h4l18 38q-36 36 -81 48q-12 14 -10 36l10 20q17 12 39 10q42 -6 74 -34q10 38 13 78t9 80v150q-4 38 -16 71.5t-36 63.5h-4v4q-24 30 -64 24q-41 -4 -69 -36l-12 -18h-4
q-42 -63 -59 -136t-11 -151q4 -62 17 -121t53 -107l4 -2l16 -22q28 -18 63 -25z" />
    <glyph glyph-name="R" unicode="R" horiz-adv-x="512" 
d="M445 8l-20 10q-50 90 -87 185.5t-84 187.5h-14q-42 -6 -88 -4l-30 4v-108l-4 -58v-112l8 -73l-10 -20q-14 -12 -36 -10l-20 10q-20 38 -20 84v129l4 58v124l8 48v108l4 91l-2 2v86l-2 20l10 20q30 22 68 21t74 3q50 -10 99.5 -20t89.5 -42v-4l6 -2l2 -6l12 -6v-4h4
l10 -10l6 -6l10 -12q22 -26 27 -60.5t3 -70.5q-4 -26 -15 -51t-27 -47h-4l-10 -18l-20 -18h-4v-4q-24 -18 -52 -24l-2 -10q40 -90 77 -180t75 -181l-10 -20q-14 -12 -36 -10zM341 493q32 28 48 64q10 30 6 66q-6 23 -22 39l-28 24v4h-4q-16 14 -34 22q-30 8 -59.5 14
t-61.5 10l-54 -4v-60l2 -79l-4 -30v-90q40 -12 86 -8q32 4 64.5 9t60.5 19z" />
    <glyph glyph-name="S" unicode="S" horiz-adv-x="512" 
d="M230 8q-32 6 -61 18t-55 34q-36 32 -60 75q-18 36 -18 78q2 16 12 28q14 12 36 10l20 -10q8 -28 17 -57t31 -51l12 -8v-4h4q18 -17 40 -27q24 -8 53 -8q30 4 56 14t48 33q24 26 22 64q-2 32 -17 58t-37 48l-12 8q-20 28 -50 44q-37 14 -70 35t-63 49l-10 10l-14 24h-4
q-18 24 -24 53t-4 61q4 36 14 68.5t30 62.5l36 40q26 18 54 29t63 7q28 -2 53 -14t47 -28v-4h4l14 -14v-4h4l18 -22q18 -20 26 -44t8 -53l-10 -20q-14 -12 -36 -10l-20 10q-8 28 -22 52.5t-36 46.5q-34 30 -83 26l-34 -18v-4l-6 -6l-26 -30q-10 -26 -16 -53.5t-4 -57.5
q10 -22 24 -44l6 -4l6 -10q40 -32 83.5 -52t83.5 -52v-4h4l20 -20l18 -18q34 -38 49 -83t11 -99q-12 -44 -40 -81l-8 -8h-4l-4 -6l-16 -14q-34 -24 -75 -34t-88 -10z" />
    <glyph glyph-name="T" unicode="T" horiz-adv-x="512" 
d="M242 2l-20 10q-16 20 -14 48l2 10l-2 55l4 96l-4 30v120l12 90v126l-4 121h-22l-106 -6q-26 2 -48 16q-12 14 -10 36l10 20q14 12 36 10l30 -4l118 8h127l2 2h94l20 -10q12 -14 10 -36l-10 -20q-38 -14 -83 -13t-89 -1v-42l4 -73v-142l-12 -90v-104l4 -102l-4 -77l2 -48
l-10 -20q-14 -12 -37 -10z" />
    <glyph glyph-name="U" unicode="U" horiz-adv-x="512" 
d="M228 32q-34 6 -65 21t-59 37l-2 6h-4q-42 79 -51 169t-11 180l2 2v120q4 59 10 115t26 108q14 12 36 10l20 -10q12 -16 10 -38q-10 -46 -15 -94.5t-9 -98.5v-120l-2 -38q4 -66 12 -132t34 -124q24 -16 50 -26.5t59 -8.5l54 31q26 38 36 84t12 96v88l2 2v94q4 32 5 64
t3 65v100l-4 38q2 16 12 28q14 12 36 10l20 -10q16 -26 14 -58v-116l-8 -129v-94l-2 -2v-88q-2 -60 -16 -118t-50 -107l-6 -2l-4 -6q-30 -26 -66 -39t-79 -9z" />
    <glyph glyph-name="V" unicode="V" horiz-adv-x="512" 
d="M220 2l-20 10q-46 191 -86 381t-88 381l10 20q14 12 36 10l20 -10q42 -150 81 -301.5t63 -305.5l6 -2q31 156 71 311.5t100 303.5q14 12 36 10l20 -10q12 -16 10 -38q-70 -181 -110 -368t-90 -374q-27 -18 -59 -18z" />
    <glyph glyph-name="W" unicode="W" horiz-adv-x="512" 
d="M345 -18l-20 10q-24 139 -42 278t-41 277h-4q-16 -136 -31 -271t-45 -266q-14 -12 -36 -10l-20 10q-50 187 -68 379t-26 385l10 20q14 12 36 10l20 -10q24 -120 27 -246.5t21 -248.5h4q12 128 31 254.5t51 248.5q16 12 38 10l21 -10q42 -112 50 -233.5t34 -239.5h4
q16 118 34 236.5t42 234.5q14 12 36 10l20 -10q16 -26 10 -60q-32 -187 -58 -375t-62 -373q-14 -12 -36 -10z" />
    <glyph glyph-name="X" unicode="X" horiz-adv-x="512" 
d="M78 -14l-20 10q-12 16 -10 38q46 91 81 186t79 189q-34 94 -66 188.5t-86 180.5l10 20q14 12 36 10l20 -10l42 -58q30 -50 51 -105.5t33 -113.5h4q29 72 63 143.5t74 139.5q14 12 36 10l20 -10q12 -16 10 -38q-48 -88 -89 -180.5t-69 -186.5q50 -86 84 -177l68 -182
l-10 -20q-14 -12 -36 -10l-20 10q-38 70 -65 142.5t-59 144.5l-7 2q-36 -76 -65 -157.5t-71 -153.5q-16 -14 -38 -12z" />
    <glyph glyph-name="Y" unicode="Y" horiz-adv-x="512" 
d="M238 -20l-20 10q-10 12 -12 28v115q2 28 6 54t6 54v92q-16 118 -85 221.5t-101 217.5l10 20q14 12 36 10l20 -10q28 -72 70 -138.5t74 -138.5l6 -2q39 68 77 137.5t80 137.5q14 12 36 10l20 -10q12 -16 10 -38q-50 -98 -112 -195.5t-64 -211.5l2 -2v-108l-12 -108v-115
l-10 -20q-14 -12 -37 -10z" />
    <glyph glyph-name="Z" unicode="Z" horiz-adv-x="512" 
d="M74 -10q-20 0 -34 12q-10 14 -12 32q76 165 157.5 328t161.5 328q-74 -2 -144.5 7t-140.5 23q-12 14 -10 36l10 20q18 14 44 10q60 -2 116.5 -12t118.5 -6q24 6 49 8t51 4l20 -10q12 -14 10 -36q-100 -157 -176.5 -326t-162.5 -334h6q62 10 126.5 14t130.5 4q42 0 76 -18
q12 -14 10 -36l-10 -20q-16 -10 -34 -12q-26 6 -54 8t-56 0q-64 -4 -126.5 -11t-126.5 -13z" />
    <glyph glyph-name="bracketleft" unicode="[" horiz-adv-x="512" 
d="M248 -98q-16 2 -28 12q-18 36 -12 84l2 70l-4 105l2 22l-6 62v96q4 32 5 65t5 65v173q-2 36 -6 70t-12 66l10 20l20 10h83l42 4h86l20 -10q12 -14 10 -36l-10 -20q-38 -14 -83 -13t-87 -3v-18l6 -62v-189l-10 -130v-80l6 -100l-2 -50l4 -39v-86l-2 -6l94 -2l66 4l20 -10
q12 -14 10 -36l-10 -20q-36 -18 -80 -16h-82l-36 4z" />
    <glyph glyph-name="backslash" unicode="\" horiz-adv-x="512" 
d="M236 2l-20 10q-10 12 -12 28v107l8 70h-4l-128 -14l-20 10q-12 14 -10 36l10 20q34 16 75 19t81 7v40h-16q-28 -6 -56 -8t-58 -2q-16 2 -28 12q-12 14 -10 36l10 20q36 12 76 13t78 9l4 12q-44 86 -98 168.5t-94 168.5l10 20q14 12 36 10l20 -10q20 -38 46 -70
q24 -28 42 -61.5t38 -65.5q20 -40 47 -78h4q30 70 62 142.5t76 138.5q14 12 36 10l20 -10q12 -16 10 -38q-50 -78 -84 -163.5t-72 -167.5h16l104 4l20 -10q12 -14 10 -36l-10 -20q-36 -14 -78 -14t-82 -2v-42h32l2 2h94q26 -2 46 -16q12 -14 10 -36l-10 -20q-18 -14 -44 -10
q-44 6 -90 4l-42 -2l-10 -84v-107l-10 -20q-14 -12 -37 -10z" />
    <glyph glyph-name="bracketright" unicode="]" horiz-adv-x="512" 
d="M246 -100q-30 4 -59 7t-61 1l-54 -2q-16 2 -28 12q-12 14 -10 36l10 20q32 12 69 12h73l48 -4v40l-8 60v83l6 80v170l10 74v143q-4 28 -5 57t-3 59l-2 2h-88l-48 -2q-26 4 -48 18q-12 14 -10 36l10 20q16 12 38 10q22 -8 50 -6l2 2h147l20 -10q12 -14 10 -36l-2 -26
l8 -116v-159l-10 -74v-170l-6 -147q4 -30 7 -62t1 -66q2 -28 -12 -50q-24 -14 -55 -12z" />
    <glyph glyph-name="asciicircum" unicode="^" horiz-adv-x="512" 
d="M120 652l-20 10q-12 16 -10 38l16 26l14 14h4l4 6l16 16h4q32 38 54 80q26 32 69 26l20 -10q34 -42 80 -68t82 -64l2 -24l-10 -20q-16 -12 -38 -10q-36 22 -71 47t-71 47l-11 8q-26 -42 -62 -76h-4v-4h-4l-6 -10l-34 -30z" />
    <glyph glyph-name="underscore" unicode="_" horiz-adv-x="512" 
d="M87 -104l-50 4l-20 -2q-13 6 -19 20v16l15 20q30 6 63 4l20 -4h101l43 4h86l2 -2h89l28 2q30 0 53 -14q8 -10 6 -26q-6 -14 -19 -20l-34 -2l-27 4l-2 -2h-101l-74 2l-43 -4h-117z" />
    <glyph glyph-name="grave" unicode="`" horiz-adv-x="512" 
d="M303 660l-30 19l-45 57h-4l-6 12l-6 1q-16 21 -32 42.5t-18 47.5l10 19q18 11 44 7l12 -7q22 -34 50.5 -64.5t50.5 -64.5l8 -4q14 -15 12 -37l-10 -19q-14 -11 -36 -9z" />
    <glyph glyph-name="a" unicode="a" horiz-adv-x="512" 
d="M445 2q-30 8 -54 28v4h-4v4h-4v4l-6 2l-16 28h-4l-4 -6q-30 -22 -63 -36t-74 -12q-28 2 -53 10t-45 26q-18 22 -29 46.5t-7 54.5q4 34 21 64t43 56q44 40 92.5 70t108.5 28v8q-16 44 -56 80q-20 22 -51 16q-38 -10 -70 -34l-2 -4q-12 -8 -16 -20q-8 -28 -20 -56
q-14 -12 -36 -10l-20 10q-14 20 -10 50q6 24 19 46t31 42q36 28 77 43t90 11q24 -8 44 -22v-4l20 -12l16 -16l24 -28l4 -10h4q20 -34 30 -72v-252q-4 -33 24 -53l32 -16q12 -14 10 -36l-10 -20q-16 -12 -36 -12zM263 104q28 11 50 35l2 4l12 12q4 18 14 34l6 2v104h-26
q-40 -12 -75 -36v-4q-24 -12 -40 -34l-8 -8l-10 -4q-26 -32 -28 -76q8 -23 28 -31l54 -6z" />
    <glyph glyph-name="b" unicode="b" horiz-adv-x="512" 
d="M122 -2q-28 10 -54 24q-18 40 -12 91l2 2v388l2 48l-10 171q-4 42 14 76q14 12 36 10l20 -10q16 -36 10 -82l-2 -34q6 -44 8 -88.5t2 -90.5h4q30 30 66 46t81 12q50 -10 90 -40v-4l20 -12l12 -12q30 -40 37 -90t5 -104q-2 -40 -18 -74t-40 -64l-12 -14h-4l-4 -10l-10 -12
h-4l-4 -10l-6 -2v-5h-4l-2 -6h-4v-4q-48 -40 -104.5 -61t-114.5 -39zM246 129l25 14v4l20 12l4 8l6 2q34 38 57 79t17 95q-2 30 -7 57t-25 49q-36 34 -86 34q-25 -6 -45 -20v-4l-22 -22h-4q-18 -38 -34 -76l-16 -8v-247l-2 -22h6z" />
    <glyph glyph-name="c" unicode="c" horiz-adv-x="512" 
d="M218 14q-26 6 -51 18t-47 28l-4 10h-4q-26 36 -40 77.5t-18 87.5v86q6 48 22 93t48 83l40 28l4 6q24 22 56.5 27t68.5 3q26 -4 49 -14t45 -26q22 -20 34 -46q14 -34 18 -74l-10 -20q-14 -12 -36 -10l-20 10q-16 36 -30 74h-4q-12 14 -28 20q-32 12 -71 8l-44 -26v-4
q-28 -20 -42 -52q-16 -36 -20 -76t-2 -82q2 -34 12 -64t28 -56l4 -2l28 -21q26 -12 59 -8q36 8 64 37q20 28 26 62t20 64q14 12 36 10l20 -10q14 -16 10 -40q-6 -36 -18 -71.5t-32 -65.5h-4v-4l-12 -12l-10 -4v-4q-30 -22 -66 -33t-79 -7z" />
    <glyph glyph-name="d" unicode="d" horiz-adv-x="512" 
d="M407 2l-20 10q-10 16 -12 34h-8q-26 -6 -53 -12t-57 -4q-41 10 -79 22t-70 42q-38 57 -52 122t-10 135q6 34 17 68t33 62q30 32 68 52q22 12 49 15t56 1q26 -4 48 -16l44 -24v127q2 38 3 76t15 70q14 12 36 10l20 -10q16 -30 10 -70l-6 -84v-163l8 -50v-216
q2 -38 6 -77.5t2 -79.5q-2 -16 -12 -30q-14 -12 -36 -10zM373 127v30l-4 34v192l-10 4l-16 26h-4l-20 26h-4q-16 16 -38 26q-27 10 -57 6q-28 -10 -52 -30l-2 -4l-6 -6l-20 -28q-10 -26 -14 -54t-2 -60q2 -40 13 -76t33 -68q26 -16 56.5 -25.5t62.5 -11.5z" />
    <glyph glyph-name="e" unicode="e" horiz-adv-x="512" 
d="M248 10q-28 4 -54 15t-48 29l-2 6l-22 14q-42 57 -57 122t-13 137q4 40 16 76t38 68l6 2l2 6h4l10 14q32 26 68 39t81 9q26 -4 48 -16t44 -28l18 -20q20 -38 40 -77t16 -87l-10 -20q-22 -14 -52 -14h-122q-31 -6 -63 -8l-64 -4v-14q6 -36 16 -69t32 -61l26 -19v-4
q36 -22 83 -18q28 8 52 22v5q12 12 20 30q8 38 22 74q14 12 36 10l20 -10q14 -18 10 -44q-6 -30 -16 -59.5t-30 -53.5h-4l-2 -6l-12 -6v-4q-30 -20 -63 -30t-74 -6zM359 365q-18 42 -44 82q-34 26 -81 22l-56 -28l-4 -10l-8 -8h-4q-22 -32 -26 -70h36l80 10h105z" />
    <glyph glyph-name="f" unicode="f" horiz-adv-x="512" 
d="M230 -2l-20 10q-14 24 -14 53v60l4 82v114l-10 172h-22l-102 -6l-20 10q-12 14 -10 36l10 20q30 14 67 15t73 3v26l-2 57q4 28 12 55t26 49l10 10q27 24 61 33t72 5q44 -10 80 -42l20 -20q12 -14 10 -36l-10 -20q-14 -12 -36 -10q-26 18 -52 38t-62 12l-26 -14v-4l-6 -6
h-4q-20 -44 -16 -97l4 -30h46l2 2h100l24 -12q12 -14 10 -36l-10 -20l-20 -10h-98l-52 -4v-10l10 -158v-130l-4 -123l2 -44l-10 -20q-15 -12 -37 -10z" />
    <glyph glyph-name="g" unicode="g" horiz-adv-x="512" 
d="M218 -138q-36 6 -70 16t-60 36q-32 40 -41 91t-11 103q2 17 12 29q14 12 36 10l20 -10q12 -41 15 -85t23 -82h4l22 -18q36 -10 78 -10q29 10 53 32q18 36 18 79t6 86v92h-8q-44 -16 -97 -12q-46 6 -84 30q-22 22 -36 48q-16 40 -12 90q2 30 12 57t30 51l22 20
q24 24 55 34t68 6q26 -4 48 -17t44 -27v-4h4v-4h4l4 -10h4q28 -40 32 -92q-12 -24 -12 -54v-216q-4 -59 -8 -116t-40 -101q-28 -24 -61 -38t-74 -14zM297 309q28 22 27 55t3 65q-6 16 -22 28q-30 24 -73 20l-8 -2v-4l-16 -8l-4 -6l-6 -8q-16 -10 -26 -30q-10 -32 -8 -70
q4 -20 18 -36q36 -22 85 -16z" />
    <glyph glyph-name="h" unicode="h" horiz-adv-x="512" 
d="M399 -4l-20 10q-10 12 -12 28v125q2 32 7 62t5 62q-6 54 -7 109t-35 97q-26 6 -54 4q-26 -10 -51 -28q-26 -24 -46 -54q-20 -60 -31 -124t-9 -130l2 -69q2 -44 -14 -80q-14 -12 -36 -10l-20 10q-16 48 -18 100.5t-2 106.5l4 28v499q0 26 14 46q14 12 36 10l20 -10
q14 -18 10 -44l-2 -2v-255h4l12 14h4l6 10l6 2v4q34 32 74.5 46t88.5 8q32 -4 58 -24l2 -6l6 -4q48 -62 50 -141t6 -157q-10 -42 -12 -88v-125l-10 -20q-14 -12 -36 -10z" />
    <glyph glyph-name="i" unicode="i" horiz-adv-x="512" 
d="M250 -2l-20 10q-16 46 -17 99.5t-3 105.5l10 172v96l-4 60q2 16 12 28q14 12 37 10l20 -10q16 -36 14 -80v-112l-10 -210q0 -36 4 -69.5t4 -69.5l-10 -20q-14 -12 -37 -10zM246 676q-18 4 -34 16q-18 22 -22 52q6 26 24 48q20 16 51 12l26 -14q28 -30 20 -76l-14 -24
q-22 -16 -51 -14z" />
    <glyph glyph-name="j" unicode="j" horiz-adv-x="512" 
d="M190 -130q-28 6 -54 20t-48 36q-18 26 -23 59t-3 67q2 16 12 28q14 12 36 10l20 -10q12 -22 10 -50t6 -52h4q12 -14 28 -22q28 -12 64 -8l37 26v4l10 12l4 68v245l4 52v146l-2 36q2 16 12 28q14 12 36 10l20 -10q14 -24 12 -56v-162l-4 -52v-245q-4 -32 -5 -66t-25 -58
h-4l-12 -16q-26 -28 -60.5 -36t-74.5 -4zM323 678q-22 4 -38 18q-16 20 -18 44q4 20 16 38q22 24 58 18l36 -20q16 -20 12 -50l-18 -34q-20 -16 -48 -14z" />
    <glyph glyph-name="k" unicode="k" horiz-adv-x="512" 
d="M413 -2l-24 14q-46 66 -88 135.5t-73 141.5h-4l-6 -8h-4l-14 -24l-18 -20h-4l-26 -44l-10 -12l6 -147l-10 -20q-14 -12 -36 -10l-20 10q-14 36 -15 77.5t-3 81.5v222l10 114v169l-4 96q2 16 12 28q14 12 36 10l20 -10q12 -26 11 -57t3 -59v-185q-6 -44 -8 -90t-2 -94h4
l92 120l6 6q25 30 53 61t50 63q14 12 36 10l20 -10q12 -14 10 -36q-18 -32 -42 -64h-4l-6 -12l-32 -36h-4l-20 -30l-6 -6h-4l-16 -28q40 -84 89 -164.5t91 -162.5l-10 -20q-14 -12 -36 -10z" />
    <glyph glyph-name="l" unicode="l" horiz-adv-x="512" 
d="M254 -2l-20 10q-18 40 -18 86v123q6 44 4 90l-6 90v144l6 54v127l-4 52q2 16 12 28q14 12 37 10l20 -10q14 -34 14 -72v-143l-6 -54v-128l6 -90v-84l-4 -22v-107l6 -74l-10 -20q-14 -12 -37 -10z" />
    <glyph glyph-name="m" unicode="m" horiz-adv-x="512" 
d="M230 -6l-19 10q-9 12 -11 28v81l8 98v208q0 26 -11 46l-13 2l-15 -12q-37 -104 -48 -217t-31 -222q-15 -12 -35 -10l-19 10q-16 34 -14 78v293l-6 146l9 20q13 12 33 10l19 -10q16 -38 13 -86h3l26 48q19 18 42 26t50 6l22 -12v-4l18 -10l11 -22l6 -2q14 30 42 48
q35 20 79 14l30 -18q14 -20 19 -45t5 -53v-98l3 -26v-215l4 -28q13 0 24 -10q11 -14 9 -36l-9 -20q-18 -14 -44 -12q-17 2 -30 14q-24 36 -26 84v215l-3 26v98l-4 46h-11l-22 -16q-35 -110 -45 -228t-25 -233q-13 -12 -34 -10z" />
    <glyph glyph-name="n" unicode="n" horiz-adv-x="512" 
d="M108 4q-16 2 -28 12q-16 32 -18 72v123l4 20v254l-2 60l10 20q14 12 36 10l20 -10q12 -24 12 -52t2 -56h4l32 50h4l30 34q26 22 59.5 26t69.5 2q46 -2 82 -30l6 -6q38 -118 38 -245t18 -252l-10 -20q-16 -12 -38 -10l-20 10q-24 115 -27 234t-25 233q-38 10 -80 8
q-22 -8 -41 -28l-10 -16h-4q-60 -96 -72 -208t-22 -223q-14 -10 -30 -12z" />
    <glyph glyph-name="o" unicode="o" horiz-adv-x="512" 
d="M232 22q-34 4 -64 19t-58 35q-40 45 -53 101t-11 118q6 62 27 118t67 102q28 26 60 41t71 13q30 -10 61 -21t57 -33l12 -12l4 -10h4q18 -30 31 -62t19 -66v-112q-2 -42 -14 -81t-36 -74h-4l-4 -10l-18 -16q-34 -22 -71 -35t-80 -15zM329 131l16 12q18 26 26 56t10 62v96
q-6 28 -16 53t-30 47q-40 30 -95 30l-28 -12v-4l-12 -10q-34 -30 -52 -70q-12 -30 -18 -62t-6 -66q0 -36 9 -68t29 -58q38 -33 88 -37q41 13 79 31z" />
    <glyph glyph-name="p" unicode="p" horiz-adv-x="512" 
d="M102 -131l-20 10q-14 59 -18 122.5t-8 127.5v284l-2 2v89q-2 30 14 54q14 11 36 9l20 -9l10 -4q38 27 83.5 36t95.5 7q30 -6 58 -17t52 -32l4 -10h4q34 -46 49 -97t11 -111q-8 -49 -36 -89h-4v-4l-8 -7l-38 -38q-40 -28 -88 -39.5t-103 -7.5l-80 19v-27q2 -61 8 -119
t6 -119l-10 -20q-14 -12 -36 -10zM339 243q32 22 58 52q20 35 16 79q-4 33 -16 65t-36 57l-4 2v4q-42 22 -94 18q-29 0 -52 -12t-45 -26l-12 -17l-20 -10l-2 -32l2 -2v-172q30 -12 62 -20.5t71 -6.5q40 4 72 21z" />
    <glyph glyph-name="q" unicode="q" horiz-adv-x="512" 
d="M401 -132l-20 10q-20 40 -14 92l2 2v147l-2 42h-8q-30 -14 -63 -20t-70 -4q-40 0 -76 11t-64 39v4h-4q-22 32 -33 70t-11 80q4 48 19 91t47 79q50 42 108.5 66t128.5 18q26 -4 51 -12t51 -16q14 -18 10 -42l-2 -2v-186l-8 -152l4 -58v-165l-2 -34l2 -30l-10 -20
q-14 -12 -36 -10zM365 251l8 94v156q-38 22 -88 16q-33 -6 -63 -21t-56 -35l-2 -4q-16 -14 -26 -32q-12 -24 -16 -51t-6 -55q4 -42 28 -76l6 -8q26 -18 58 -19t65 -1q50 10 92 36z" />
    <glyph glyph-name="r" unicode="r" horiz-adv-x="512" 
d="M140 2l-20 10q-18 34 -18 76v121l10 148v92l-6 86q2 16 12 28q14 12 36 10l20 -10q12 -22 12 -50t2 -54h4l32 44t43 34q40 16 88 14q38 -6 68 -34q16 -18 14 -42l-10 -20q-16 -12 -38 -10l-20 10l-4 10l-32 8q-30 0 -50 -22l-22 -34h-4q-51 -92 -60 -197t-21 -208
q-14 -12 -36 -10z" />
    <glyph glyph-name="s" unicode="s" horiz-adv-x="512" 
d="M238 -6q-38 8 -71 25t-63 41q-24 28 -32 63.5t-8 73.5q2 16 12 28q16 12 38 10l20 -10q12 -14 10 -36l-2 -8q0 -38 20 -66q30 -23 62.5 -35t72.5 -8q36 6 62 32q18 21 12 51q-14 28 -40 52l-22 18v4q-46 32 -97.5 52t-99.5 50q-30 36 -30 86q2 28 17 51t33 45
q22 18 47 29t53 17h81q40 -6 72 -34l40 -48q12 -22 12 -48l-10 -20q-14 -12 -36 -10l-20 10q-18 44 -58 70l-71 2q-28 -8 -54 -22v-4q-16 -14 -26 -34l-2 -16l12 -22q50 -18 98.5 -42t92.5 -56l24 -22l22 -22l4 -10h4q22 -26 29 -58t3 -69q-6 -22 -22 -42l-10 -12l-18 -18
q-34 -24 -74 -33t-87 -5z" />
    <glyph glyph-name="t" unicode="t" horiz-adv-x="512" 
d="M291 6q-51 2 -87 36q-22 36 -28 80.5t-4 92.5l4 20v142l8 102h-18l-58 -2q-38 -2 -66 14q-12 14 -10 36l10 20q32 16 72 10l44 -2l24 2v26l-6 43v94q2 16 12 28q14 12 36 10l20 -10l10 -20v-94l7 -73l128 -2l22 2l20 -10q12 -14 10 -36l-10 -20q-22 -16 -50 -15t-56 1
l-62 2l-9 -114v-142q-6 -38 -4 -78q2 -30 17 -55q34 -14 74 -10q42 26 90 43l20 -10q12 -17 10 -39l-10 -20l-12 -6v-4q-32 -24 -68 -35t-80 -7z" />
    <glyph glyph-name="u" unicode="u" horiz-adv-x="512" 
d="M168 6q-40 6 -70 36q-28 32 -40 69.5t-16 79.5v126q6 62 6 125t16 121q14 12 36 10l20 -10q16 -22 10 -54l-10 -200v-110q4 -30 11 -57t29 -50q16 -10 38 -8q40 4 71 33l24 28q46 94 45 200t21 206q16 12 38 10l20 -10q14 -20 10 -50q-4 -72 -10 -144t-6 -146
q4 -28 7 -55t17 -50l6 -2v-4h4l6 -6l20 -20q12 -14 10 -36l-10 -20q-16 -12 -38 -10q-20 6 -34 22q-28 28 -44 62h-4l-16 -22l-10 -10l-18 -16q-30 -22 -65.5 -30t-73.5 -8z" />
    <glyph glyph-name="v" unicode="v" horiz-adv-x="512" 
d="M240 12l-20 10q-68 125 -96 261t-78 266l10 20q14 12 36 10l20 -10q48 -104 75 -212t61 -216h4q23 108 63 210t80 206q14 12 36 10l20 -10q12 -16 10 -38q-46 -122 -89 -244t-69 -251q-28 -14 -63 -12z" />
    <glyph glyph-name="w" unicode="w" horiz-adv-x="512" 
d="M347 -6l-20 10q-30 82 -42 171.5t-31 177.5h-4q-14 -88 -32 -173.5t-40 -171.5q-14 -12 -36 -10l-30 14q-36 129 -46 264t-44 265l10 20q14 12 36 10l20 -10q32 -74 41 -155t19 -163h4q14 80 26 161t36 157q14 12 36 10l25 -12q38 -78 52 -162l28 -168h6q10 86 23 170
t41 164q14 12 36 10l20 -10q12 -16 10 -38q-30 -126 -47 -254t-39 -255q-26 -20 -58 -22z" />
    <glyph glyph-name="x" unicode="x" horiz-adv-x="512" 
d="M114 -16l-20 10q-10 14 -12 32q30 66 64 130.5t70 126.5q-42 64 -83 129t-59 139l10 20q14 12 36 10l20 -10q16 -24 26 -50t22 -52h4l62 -106h7q16 32 33 64t37 64h4q16 40 42 76q14 12 36 10l20 -10q12 -16 10 -38q-14 -22 -25 -45t-25 -45h-4q-20 -40 -42 -79t-40 -81
q10 -36 28 -68h4q24 -48 56 -92.5t50 -94.5l-10 -20q-16 -12 -38 -10l-20 10l-16 20q-20 34 -42 66.5t-38 68.5l-6 4l-21 26q-30 -46 -54 -96.5t-50 -98.5q-14 -12 -36 -10z" />
    <glyph glyph-name="y" unicode="y" horiz-adv-x="512" 
d="M126 -106q-30 4 -52 26q-12 14 -14 34q2 16 12 28q14 12 36 10l20 -10l8 -10h24l26 12q24 48 44 97.5t31 101.5q-17 36 -37 71t-44 67l-6 4q-34 50 -70 99t-58 105l10 20q14 12 36 10l20 -10l14 -24h4l4 -10h4l4 -10h4l86 -130h4l27 -34l32 -52h4q32 66 58 134t48 138
q14 12 36 10l20 -10q12 -16 10 -38q-54 -150 -108 -300.5t-121 -296.5q-24 -22 -53 -28t-63 -4z" />
    <glyph glyph-name="z" unicode="z" horiz-adv-x="512" 
d="M84 -16l-20 10q-14 16 -16 38q50 87 100 173t106 170h5l26 40h4l36 66h-73l-76 -4q-52 0 -98 16q-12 14 -10 36l10 20q38 16 84 10l60 -4q49 2 98 5t97 5l20 -10q12 -16 10 -38q-26 -38 -52 -77t-50 -79h-4l-26 -40h-4q-38 -64 -77.5 -128t-73.5 -129h18q38 8 79.5 10
t83.5 4h84l20 -10q12 -14 10 -36l-10 -20q-88 -12 -179.5 -18t-181.5 -10z" />
    <glyph glyph-name="braceleft" unicode="{" horiz-adv-x="512" 
d="M399 -124q-34 2 -60 24q-20 28 -29 62t-13 68v147q-4 34 -5 68t-19 62l-4 2v4l-12 4l-17 -2q-20 2 -38 14q-12 16 -10 38l10 20q32 14 69 16l4 8l14 14l6 54q-6 40 -12 81t-4 86q6 58 25 110t63 94q26 20 62 16l20 -10q12 -14 10 -36l-10 -20q-20 -8 -40 -20v-4
q-20 -20 -32 -44q-12 -32 -17 -66t-3 -73q6 -36 11 -71t5 -73q-4 -46 -30 -84l-6 -4v-6q26 -36 30 -81t8 -89v-147q4 -44 20 -82q34 6 60 -10q12 -14 10 -36l-10 -20q-24 -16 -56 -14z" />
    <glyph glyph-name="bar" unicode="|" horiz-adv-x="512" 
d="M240 -144l-4 2q-10 12 -12 28v90l-8 62v99l-2 78l6 28v98l2 52l-6 58v94l4 54v85l-2 2v110l-6 54l6 30h73l6 -74v-110l2 -2v-103l-4 -130q4 -32 5 -64t1 -64l-2 -2v-96q-8 -42 -6 -88l2 -2v-99l8 -62v-106l-10 -20z" />
    <glyph glyph-name="braceright" unicode="}" horiz-adv-x="512" 
d="M106 -136q-22 2 -40 14q-12 16 -10 38l10 20q14 12 36 10l30 -2q22 14 32 36l2 44q-4 46 -10 91.5t-4 93.5q2 46 11 88t25 82l-8 6v4h-4q-22 40 -25 88t-3 98l4 99q-2 28 -3 57t-17 51q-40 0 -72 16q-12 14 -10 36l10 20q36 16 80 10l44 -22l12 -12q30 -44 32 -100
t2 -113l-4 -102q2 -40 14 -76q29 0 51 -14q12 -14 10 -36l-16 -26l-18 -16h-4q-23 -44 -28 -94t-5 -102q6 -43 11 -86t3 -89q-8 -40 -36 -72l-6 -2l-6 -10q-38 -30 -90 -28z" />
    <glyph glyph-name="asciitilde" unicode="~" horiz-adv-x="512" 
d="M337 684q-38 6 -66 34l-14 24l-7 4l-24 26v4l-8 4l-14 14h-20q-28 -8 -48 -34q-10 -32 -22 -62q-14 -12 -36 -10l-20 10q-14 20 -10 50q8 40 34 72l6 2v4h4v4q26 22 57 34t67 8q26 -6 49 -24l28 -28l4 -10h4q18 -26 40 -46h6l30 28q12 12 20 28l14 30q14 12 36 10l20 -10
q12 -16 10 -38q-10 -34 -30 -64l-26 -28l-10 -4l-4 -6q-30 -24 -70 -26z" />
    <glyph glyph-name="uni00A0" unicode="&#xa0;" horiz-adv-x="512" 
 />
    <glyph glyph-name="exclamdown" unicode="&#xa1;" horiz-adv-x="512" 
 />
    <glyph glyph-name="cent" unicode="&#xa2;" 
 />
    <glyph glyph-name="sterling" unicode="&#xa3;" 
 />
    <glyph glyph-name="currency" unicode="&#xa4;" horiz-adv-x="512" 
 />
    <glyph glyph-name="yen" unicode="&#xa5;" horiz-adv-x="512" 
 />
    <glyph glyph-name="brokenbar" unicode="&#xa6;" horiz-adv-x="512" 
 />
    <glyph glyph-name="section" unicode="&#xa7;" 
d="M489 -94q-32 8 -61 22t-55 34q-24 28 -30 64q2 16 12 28q14 12 36 10l20 -10l20 -36q24 -16 50 -27t58 -7q38 6 70 28v4l16 18v30q-16 30 -40 59q-44 32 -100 36t-98 40l-2 6h-4v4l-6 2v4h-4v4h-4q-18 22 -32 46t-12 54q8 32 28 59t38 55l-22 12v4h-4q-20 24 -32 51
t-10 59q4 24 19 45.5t33 41.5l10 10q42 34 90 52t106 14q38 -4 66 -28l8 -8q14 -24 30 -48.5t20 -52.5l-10 -20q-14 -12 -36 -10l-20 10q-26 42 -56 77l-42 2q-30 -4 -55 -17.5t-49 -31.5l-2 -4l-6 -6l-6 -6h-4v-4h-4l-4 -10h-4l-6 -28l12 -24h4q14 -16 32 -26
q46 -28 98 -43t96 -45l2 -6l6 -4l10 -8v-4l6 -2q18 -20 27 -45t7 -55q-10 -28 -28 -52t-30 -50h4l10 -12v-4h4q26 -28 38 -62.5t6 -76.5q-6 -26 -24 -46q-34 -34 -76 -52q-26 -10 -55 -13t-59 -1zM571 223l12 8q22 32 38 66q-10 20 -26 36l-4 2l-18 16q-28 12 -57 20t-57 20
l-16 -22h-4l-8 -16h-4l-24 -48l16 -28l10 -6l2 -6l8 -4l2 -6h4v-4q28 -12 61 -17t63 -13z" />
    <glyph glyph-name="dieresis" unicode="&#xa8;" 
d="M619 694q-26 4 -46 26q-16 20 -14 46q6 32 34 56q22 18 54 12l22 -12q32 -30 30 -76l-22 -34q-24 -20 -58 -18zM377 696q-22 4 -40 20q-16 24 -20 54q6 26 26 46q20 16 50 12q22 -6 38 -24q18 -22 12 -54q-2 -20 -14 -36l-6 -6q-20 -14 -46 -12z" />
    <glyph glyph-name="copyright" unicode="&#xa9;" horiz-adv-x="512" 
 />
    <glyph glyph-name="ordfeminine" unicode="&#xaa;" horiz-adv-x="512" 
 />
    <glyph glyph-name="guillemotleft" unicode="&#xab;" 
 />
    <glyph glyph-name="logicalnot" unicode="&#xac;" 
 />
    <glyph glyph-name="uni00AD" unicode="&#xad;" horiz-adv-x="512" 
 />
    <glyph glyph-name="registered" unicode="&#xae;" horiz-adv-x="512" 
 />
    <glyph glyph-name="macron" unicode="&#xaf;" 
 />
    <glyph glyph-name="degree" unicode="&#xb0;" 
d="M164 531q-40 4 -70 30q-24 32 -33 69.5t-9 79.5q4 50 42 84q24 20 49 35t59 9q44 -14 81 -44q20 -18 32 -42q20 -42 16 -92q-2 -51 -38 -87q-28 -20 -60.5 -31t-68.5 -11zM222 623l20 11q12 26 10 56l-12 36l-6 4q-24 24 -56 30l-16 -10l-2 -6q-20 -12 -28 -30l-2 -34
q4 -34 22 -63q14 -8 32 -8z" />
    <glyph glyph-name="plusminus" unicode="&#xb1;" 
d="M182 12q-30 -2 -52 14q-12 14 -10 36l10 20q26 16 60 10l2 -2h109l44 4h156l2 2h170q30 4 61 7t64 3q52 4 96 -14q12 -14 10 -36l-10 -20q-16 -10 -34 -12l-95 4l-86 -10h-170l-2 -2h-156l-44 -4h-125zM503 157l-20 10q-12 16 -14 38q6 46 6 95t2 97h-152
q-42 -2 -82.5 -6t-80.5 -8q-16 2 -28 12q-12 14 -10 36l10 20q44 12 90.5 17t94.5 7h150v167l-2 30l10 20q14 12 36 10l20 -10q12 -18 14 -42v-179h44l110 6h125q36 4 66 -12q12 -14 10 -36l-10 -20q-30 -18 -72 -12l-2 2h-111l-152 -6l-2 -56v-80q4 -50 -14 -90
q-14 -12 -36 -10z" />
    <glyph glyph-name="uni00B2" unicode="&#xb2;" horiz-adv-x="512" 
 />
    <glyph glyph-name="uni00B3" unicode="&#xb3;" horiz-adv-x="512" 
 />
    <glyph glyph-name="acute" unicode="&#xb4;" 
d="M417 621l-20 11q-12 14 -10 36l24 36l6 2v4l10 10l12 12h4l2 6l8 8h4l20 26l6 2l32 38q22 28 56 28l20 -10q12 -14 10 -36l-10 -20l-16 -16h-4v-4h-4l-12 -18l-6 -2v-4l-40 -42h-4l-2 -6h-4l-2 -6l-40 -42q-16 -15 -40 -13z" />
    <glyph glyph-name="mu" unicode="&#xb5;" 
 />
    <glyph glyph-name="paragraph" unicode="&#xb6;" 
d="M471 -100l-20 10q-10 12 -12 28v82l-4 22v111l2 34l-2 2v206q-32 10 -62 26t-54 42l-16 18q-26 36 -36 80t-6 93q4 28 15 53t27 47q16 20 36 36t42 28q30 12 63 17t67 7h130q28 2 50 -12q12 -14 10 -36l-10 -20l-14 -10v-108q-4 -47 -5 -95t-5 -94v-178l-2 -2v-189
q4 -42 9 -82t5 -84l-10 -20q-14 -12 -36 -10l-20 10q-14 42 -17 88t-9 90v205l2 2v178l10 189v100h-76l-6 -153v-116l-4 -76v-222l2 -50l-2 -2v-93q4 -28 4 -59t2 -61l-10 -20q-16 -14 -38 -12z" />
    <glyph glyph-name="periodcentered" unicode="&#xb7;" 
 />
    <glyph glyph-name="cedilla" unicode="&#xb8;" 
 />
    <glyph glyph-name="uni00B9" unicode="&#xb9;" horiz-adv-x="512" 
 />
    <glyph glyph-name="ordmasculine" unicode="&#xba;" horiz-adv-x="512" 
 />
    <glyph glyph-name="guillemotright" unicode="&#xbb;" 
 />
    <glyph glyph-name="onequarter" unicode="&#xbc;" horiz-adv-x="512" 
 />
    <glyph glyph-name="onehalf" unicode="&#xbd;" horiz-adv-x="512" 
 />
    <glyph glyph-name="threequarters" unicode="&#xbe;" horiz-adv-x="512" 
 />
    <glyph glyph-name="questiondown" unicode="&#xbf;" horiz-adv-x="512" 
 />
    <glyph glyph-name="Agrave" unicode="&#xc0;" horiz-adv-x="512" 
 />
    <glyph glyph-name="Aacute" unicode="&#xc1;" horiz-adv-x="512" 
 />
    <glyph glyph-name="Acircumflex" unicode="&#xc2;" horiz-adv-x="512" 
 />
    <glyph glyph-name="Atilde" unicode="&#xc3;" horiz-adv-x="512" 
 />
    <glyph glyph-name="Adieresis" unicode="&#xc4;" horiz-adv-x="512" 
 />
    <glyph glyph-name="Aring" unicode="&#xc5;" horiz-adv-x="512" 
 />
    <glyph glyph-name="AE" unicode="&#xc6;" horiz-adv-x="512" 
 />
    <glyph glyph-name="Ccedilla" unicode="&#xc7;" horiz-adv-x="512" 
 />
    <glyph glyph-name="Egrave" unicode="&#xc8;" horiz-adv-x="512" 
 />
    <glyph glyph-name="Eacute" unicode="&#xc9;" horiz-adv-x="512" 
 />
    <glyph glyph-name="Ecircumflex" unicode="&#xca;" horiz-adv-x="512" 
 />
    <glyph glyph-name="Edieresis" unicode="&#xcb;" horiz-adv-x="512" 
 />
    <glyph glyph-name="Igrave" unicode="&#xcc;" horiz-adv-x="512" 
 />
    <glyph glyph-name="Iacute" unicode="&#xcd;" horiz-adv-x="512" 
 />
    <glyph glyph-name="Icircumflex" unicode="&#xce;" horiz-adv-x="512" 
 />
    <glyph glyph-name="Idieresis" unicode="&#xcf;" horiz-adv-x="512" 
 />
    <glyph glyph-name="Eth" unicode="&#xd0;" horiz-adv-x="512" 
 />
    <glyph glyph-name="Ntilde" unicode="&#xd1;" horiz-adv-x="512" 
 />
    <glyph glyph-name="Ograve" unicode="&#xd2;" horiz-adv-x="512" 
 />
    <glyph glyph-name="Oacute" unicode="&#xd3;" horiz-adv-x="512" 
 />
    <glyph glyph-name="Ocircumflex" unicode="&#xd4;" horiz-adv-x="512" 
 />
    <glyph glyph-name="Otilde" unicode="&#xd5;" horiz-adv-x="512" 
 />
    <glyph glyph-name="Odieresis" unicode="&#xd6;" horiz-adv-x="512" 
 />
    <glyph glyph-name="multiply" unicode="&#xd7;" 
d="M291 98l-20 10q-12 15 -10 37l10 20l24 18v4l30 20v4q24 18 46 38t38 44h4l48 58l6 2v6l-20 20v4l-14 10l-20 22v4l-6 2l-32 30l-8 8l-22 22v4l-32 26l-2 6l-8 4q-34 28 -38 68l10 20q14 12 36 10l20 -10q20 -20 38 -41t40 -35l8 -8v-4l6 -4l4 -8l6 -2v-4l20 -14l42 -44
v-4l8 -4l12 -14l10 -10h6l18 28h4l24 30l78 72l32 32l22 24h4l2 6q16 14 40 12l21 -10q12 -14 10 -36l-10 -20l-6 -2l-5 -10l-8 -8l-10 -10h-4v-4l-10 -12l-12 -10l-26 -26h-4v-4l-14 -12l-18 -10l-4 -10l-18 -16l-22 -24l-16 -20l-8 -6v-10l10 -4l20 -18l4 -10l12 -6
l18 -20v-4h4l14 -20l12 -6l16 -20v-4h4l18 -32l6 -4l36 -40l2 -28l-10 -20q-14 -13 -36 -11l-20 11l-14 16l-16 18l-34 44l-8 16l-16 10l-2 6l-6 4l-6 10h-4l-22 22l-38 38h-6l-8 -4v-4l-10 -10h-4v-4h-4l-4 -10l-38 -46l-6 -6l-22 -22l-6 -6l-10 -10l-28 -24l-22 -14v-4
q-32 -35 -76 -43z" />
    <glyph glyph-name="Oslash" unicode="&#xd8;" horiz-adv-x="512" 
 />
    <glyph glyph-name="Ugrave" unicode="&#xd9;" horiz-adv-x="512" 
 />
    <glyph glyph-name="Uacute" unicode="&#xda;" horiz-adv-x="512" 
 />
    <glyph glyph-name="Ucircumflex" unicode="&#xdb;" horiz-adv-x="512" 
 />
    <glyph glyph-name="Udieresis" unicode="&#xdc;" horiz-adv-x="512" 
 />
    <glyph glyph-name="Yacute" unicode="&#xdd;" horiz-adv-x="512" 
 />
    <glyph glyph-name="Thorn" unicode="&#xde;" horiz-adv-x="512" 
 />
    <glyph glyph-name="germandbls" unicode="&#xdf;" horiz-adv-x="512" 
 />
    <glyph glyph-name="agrave" unicode="&#xe0;" horiz-adv-x="512" 
 />
    <glyph glyph-name="aacute" unicode="&#xe1;" horiz-adv-x="512" 
 />
    <glyph glyph-name="acircumflex" unicode="&#xe2;" horiz-adv-x="512" 
 />
    <glyph glyph-name="atilde" unicode="&#xe3;" horiz-adv-x="512" 
 />
    <glyph glyph-name="adieresis" unicode="&#xe4;" horiz-adv-x="512" 
 />
    <glyph glyph-name="aring" unicode="&#xe5;" horiz-adv-x="512" 
 />
    <glyph glyph-name="ae" unicode="&#xe6;" horiz-adv-x="512" 
 />
    <glyph glyph-name="ccedilla" unicode="&#xe7;" horiz-adv-x="512" 
 />
    <glyph glyph-name="egrave" unicode="&#xe8;" horiz-adv-x="512" 
 />
    <glyph glyph-name="eacute" unicode="&#xe9;" horiz-adv-x="512" 
 />
    <glyph glyph-name="ecircumflex" unicode="&#xea;" horiz-adv-x="512" 
 />
    <glyph glyph-name="edieresis" unicode="&#xeb;" horiz-adv-x="512" 
 />
    <glyph glyph-name="igrave" unicode="&#xec;" horiz-adv-x="512" 
 />
    <glyph glyph-name="iacute" unicode="&#xed;" horiz-adv-x="512" 
 />
    <glyph glyph-name="icircumflex" unicode="&#xee;" horiz-adv-x="512" 
 />
    <glyph glyph-name="idieresis" unicode="&#xef;" horiz-adv-x="512" 
 />
    <glyph glyph-name="eth" unicode="&#xf0;" horiz-adv-x="512" 
 />
    <glyph glyph-name="ntilde" unicode="&#xf1;" horiz-adv-x="512" 
 />
    <glyph glyph-name="ograve" unicode="&#xf2;" horiz-adv-x="512" 
 />
    <glyph glyph-name="oacute" unicode="&#xf3;" horiz-adv-x="512" 
 />
    <glyph glyph-name="ocircumflex" unicode="&#xf4;" horiz-adv-x="512" 
 />
    <glyph glyph-name="otilde" unicode="&#xf5;" horiz-adv-x="512" 
 />
    <glyph glyph-name="odieresis" unicode="&#xf6;" horiz-adv-x="512" 
 />
    <glyph glyph-name="divide" unicode="&#xf7;" 
d="M497 28q-28 6 -52 22q-18 20 -20 48q4 29 26 51q30 28 72 24q28 -10 52 -26q14 -22 10 -53q-6 -22 -20 -42l-22 -18zM154 325l-20 10q-12 14 -10 36l10 20q22 12 48 14t52 6h95l2 -2h80l64 6h194l2 -2h88l59 -6q30 10 66 8l20 -10q12 -16 10 -38l-10 -20q-26 -10 -56 -14
t-60 -4l-37 6h-88l-2 2h-180l-64 -6h-96l-81 2zM509 567q-28 4 -52 22q-16 22 -16 51q6 28 22 52q32 30 78 22q20 -6 36 -18q16 -20 14 -50q-4 -31 -18 -59q-28 -20 -64 -20z" />
    <glyph glyph-name="oslash" unicode="&#xf8;" horiz-adv-x="512" 
 />
    <glyph glyph-name="ugrave" unicode="&#xf9;" horiz-adv-x="512" 
 />
    <glyph glyph-name="uacute" unicode="&#xfa;" horiz-adv-x="512" 
 />
    <glyph glyph-name="ucircumflex" unicode="&#xfb;" horiz-adv-x="512" 
 />
    <glyph glyph-name="udieresis" unicode="&#xfc;" horiz-adv-x="512" 
 />
    <glyph glyph-name="yacute" unicode="&#xfd;" horiz-adv-x="512" 
 />
    <glyph glyph-name="thorn" unicode="&#xfe;" horiz-adv-x="512" 
 />
    <glyph glyph-name="ydieresis" unicode="&#xff;" horiz-adv-x="512" 
 />
    <glyph glyph-name="Amacron" unicode="&#x100;" horiz-adv-x="512" 
 />
    <glyph glyph-name="amacron" unicode="&#x101;" horiz-adv-x="512" 
 />
    <glyph glyph-name="Abreve" unicode="&#x102;" horiz-adv-x="512" 
 />
    <glyph glyph-name="abreve" unicode="&#x103;" horiz-adv-x="512" 
 />
    <glyph glyph-name="Aogonek" unicode="&#x104;" horiz-adv-x="512" 
 />
    <glyph glyph-name="aogonek" unicode="&#x105;" horiz-adv-x="512" 
 />
    <glyph glyph-name="Cacute" unicode="&#x106;" horiz-adv-x="512" 
 />
    <glyph glyph-name="cacute" unicode="&#x107;" horiz-adv-x="512" 
 />
    <glyph glyph-name="Ccircumflex" unicode="&#x108;" horiz-adv-x="512" 
 />
    <glyph glyph-name="ccircumflex" unicode="&#x109;" horiz-adv-x="512" 
 />
    <glyph glyph-name="Cdotaccent" unicode="&#x10a;" horiz-adv-x="512" 
 />
    <glyph glyph-name="cdotaccent" unicode="&#x10b;" horiz-adv-x="512" 
 />
    <glyph glyph-name="Ccaron" unicode="&#x10c;" horiz-adv-x="512" 
 />
    <glyph glyph-name="ccaron" unicode="&#x10d;" horiz-adv-x="512" 
 />
    <glyph glyph-name="Dcaron" unicode="&#x10e;" horiz-adv-x="512" 
 />
    <glyph glyph-name="dcaron" unicode="&#x10f;" horiz-adv-x="512" 
 />
    <glyph glyph-name="Dcroat" unicode="&#x110;" horiz-adv-x="512" 
 />
    <glyph glyph-name="dcroat" unicode="&#x111;" horiz-adv-x="512" 
 />
    <glyph glyph-name="Emacron" unicode="&#x112;" horiz-adv-x="512" 
 />
    <glyph glyph-name="emacron" unicode="&#x113;" horiz-adv-x="512" 
 />
    <glyph glyph-name="Ebreve" unicode="&#x114;" horiz-adv-x="512" 
 />
    <glyph glyph-name="ebreve" unicode="&#x115;" horiz-adv-x="512" 
 />
    <glyph glyph-name="Edotaccent" unicode="&#x116;" horiz-adv-x="512" 
 />
    <glyph glyph-name="edotaccent" unicode="&#x117;" horiz-adv-x="512" 
 />
    <glyph glyph-name="Eogonek" unicode="&#x118;" horiz-adv-x="512" 
 />
    <glyph glyph-name="eogonek" unicode="&#x119;" horiz-adv-x="512" 
 />
    <glyph glyph-name="Ecaron" unicode="&#x11a;" horiz-adv-x="512" 
 />
    <glyph glyph-name="ecaron" unicode="&#x11b;" horiz-adv-x="512" 
 />
    <glyph glyph-name="Gcircumflex" unicode="&#x11c;" horiz-adv-x="512" 
 />
    <glyph glyph-name="gcircumflex" unicode="&#x11d;" horiz-adv-x="512" 
 />
    <glyph glyph-name="Gbreve" unicode="&#x11e;" horiz-adv-x="512" 
 />
    <glyph glyph-name="gbreve" unicode="&#x11f;" horiz-adv-x="512" 
 />
    <glyph glyph-name="Gdotaccent" unicode="&#x120;" horiz-adv-x="512" 
 />
    <glyph glyph-name="gdotaccent" unicode="&#x121;" horiz-adv-x="512" 
 />
    <glyph glyph-name="uni0122" unicode="&#x122;" horiz-adv-x="512" 
 />
    <glyph glyph-name="uni0123" unicode="&#x123;" horiz-adv-x="512" 
 />
    <glyph glyph-name="Hcircumflex" unicode="&#x124;" horiz-adv-x="512" 
 />
    <glyph glyph-name="hcircumflex" unicode="&#x125;" horiz-adv-x="512" 
 />
    <glyph glyph-name="Hbar" unicode="&#x126;" horiz-adv-x="512" 
 />
    <glyph glyph-name="hbar" unicode="&#x127;" horiz-adv-x="512" 
 />
    <glyph glyph-name="Itilde" unicode="&#x128;" horiz-adv-x="512" 
 />
    <glyph glyph-name="itilde" unicode="&#x129;" horiz-adv-x="512" 
 />
    <glyph glyph-name="Imacron" unicode="&#x12a;" horiz-adv-x="512" 
 />
    <glyph glyph-name="imacron" unicode="&#x12b;" horiz-adv-x="512" 
 />
    <glyph glyph-name="Ibreve" unicode="&#x12c;" horiz-adv-x="512" 
 />
    <glyph glyph-name="ibreve" unicode="&#x12d;" horiz-adv-x="512" 
 />
    <glyph glyph-name="Iogonek" unicode="&#x12e;" horiz-adv-x="512" 
 />
    <glyph glyph-name="iogonek" unicode="&#x12f;" horiz-adv-x="512" 
 />
    <glyph glyph-name="Idotaccent" unicode="&#x130;" horiz-adv-x="512" 
 />
    <glyph glyph-name="dotlessi" unicode="&#x131;" horiz-adv-x="512" 
 />
    <glyph glyph-name="IJ" unicode="&#x132;" horiz-adv-x="512" 
 />
    <glyph glyph-name="ij" unicode="&#x133;" horiz-adv-x="512" 
 />
    <glyph glyph-name="Jcircumflex" unicode="&#x134;" horiz-adv-x="512" 
 />
    <glyph glyph-name="jcircumflex" unicode="&#x135;" horiz-adv-x="512" 
 />
    <glyph glyph-name="uni0136" unicode="&#x136;" horiz-adv-x="512" 
 />
    <glyph glyph-name="uni0137" unicode="&#x137;" horiz-adv-x="512" 
 />
    <glyph glyph-name="kgreenlandic" unicode="&#x138;" horiz-adv-x="512" 
 />
    <glyph glyph-name="Lacute" unicode="&#x139;" horiz-adv-x="512" 
 />
    <glyph glyph-name="lacute" unicode="&#x13a;" horiz-adv-x="512" 
 />
    <glyph glyph-name="uni013B" unicode="&#x13b;" horiz-adv-x="512" 
 />
    <glyph glyph-name="uni013C" unicode="&#x13c;" horiz-adv-x="512" 
 />
    <glyph glyph-name="Lcaron" unicode="&#x13d;" horiz-adv-x="512" 
 />
    <glyph glyph-name="lcaron" unicode="&#x13e;" horiz-adv-x="512" 
 />
    <glyph glyph-name="Ldot" unicode="&#x13f;" horiz-adv-x="512" 
 />
    <glyph glyph-name="ldot" unicode="&#x140;" horiz-adv-x="512" 
 />
    <glyph glyph-name="Lslash" unicode="&#x141;" horiz-adv-x="512" 
 />
    <glyph glyph-name="lslash" unicode="&#x142;" horiz-adv-x="512" 
 />
    <glyph glyph-name="Nacute" unicode="&#x143;" horiz-adv-x="512" 
 />
    <glyph glyph-name="nacute" unicode="&#x144;" horiz-adv-x="512" 
 />
    <glyph glyph-name="uni0145" unicode="&#x145;" horiz-adv-x="512" 
 />
    <glyph glyph-name="uni0146" unicode="&#x146;" horiz-adv-x="512" 
 />
    <glyph glyph-name="Ncaron" unicode="&#x147;" horiz-adv-x="512" 
 />
    <glyph glyph-name="ncaron" unicode="&#x148;" horiz-adv-x="512" 
 />
    <glyph glyph-name="napostrophe" unicode="&#x149;" horiz-adv-x="512" 
 />
    <glyph glyph-name="Eng" unicode="&#x14a;" horiz-adv-x="512" 
 />
    <glyph glyph-name="eng" unicode="&#x14b;" horiz-adv-x="512" 
 />
    <glyph glyph-name="Omacron" unicode="&#x14c;" horiz-adv-x="512" 
 />
    <glyph glyph-name="omacron" unicode="&#x14d;" horiz-adv-x="512" 
 />
    <glyph glyph-name="Obreve" unicode="&#x14e;" horiz-adv-x="512" 
 />
    <glyph glyph-name="obreve" unicode="&#x14f;" horiz-adv-x="512" 
 />
    <glyph glyph-name="Ohungarumlaut" unicode="&#x150;" horiz-adv-x="512" 
 />
    <glyph glyph-name="ohungarumlaut" unicode="&#x151;" horiz-adv-x="512" 
 />
    <glyph glyph-name="OE" unicode="&#x152;" horiz-adv-x="512" 
 />
    <glyph glyph-name="oe" unicode="&#x153;" horiz-adv-x="512" 
 />
    <glyph glyph-name="Racute" unicode="&#x154;" horiz-adv-x="512" 
 />
    <glyph glyph-name="racute" unicode="&#x155;" horiz-adv-x="512" 
 />
    <glyph glyph-name="uni0156" unicode="&#x156;" horiz-adv-x="512" 
 />
    <glyph glyph-name="uni0157" unicode="&#x157;" horiz-adv-x="512" 
 />
    <glyph glyph-name="Rcaron" unicode="&#x158;" horiz-adv-x="512" 
 />
    <glyph glyph-name="rcaron" unicode="&#x159;" horiz-adv-x="512" 
 />
    <glyph glyph-name="Sacute" unicode="&#x15a;" horiz-adv-x="512" 
 />
    <glyph glyph-name="sacute" unicode="&#x15b;" horiz-adv-x="512" 
 />
    <glyph glyph-name="Scircumflex" unicode="&#x15c;" horiz-adv-x="512" 
 />
    <glyph glyph-name="scircumflex" unicode="&#x15d;" horiz-adv-x="512" 
 />
    <glyph glyph-name="Scedilla" unicode="&#x15e;" horiz-adv-x="512" 
 />
    <glyph glyph-name="scedilla" unicode="&#x15f;" horiz-adv-x="512" 
 />
    <glyph glyph-name="Scaron" unicode="&#x160;" horiz-adv-x="512" 
 />
    <glyph glyph-name="scaron" unicode="&#x161;" horiz-adv-x="512" 
 />
    <glyph glyph-name="uni0162" unicode="&#x162;" horiz-adv-x="512" 
 />
    <glyph glyph-name="uni0163" unicode="&#x163;" horiz-adv-x="512" 
 />
    <glyph glyph-name="Tcaron" unicode="&#x164;" horiz-adv-x="512" 
 />
    <glyph glyph-name="tcaron" unicode="&#x165;" horiz-adv-x="512" 
 />
    <glyph glyph-name="Tbar" unicode="&#x166;" horiz-adv-x="512" 
 />
    <glyph glyph-name="tbar" unicode="&#x167;" horiz-adv-x="512" 
 />
    <glyph glyph-name="Utilde" unicode="&#x168;" horiz-adv-x="512" 
 />
    <glyph glyph-name="utilde" unicode="&#x169;" horiz-adv-x="512" 
 />
    <glyph glyph-name="Umacron" unicode="&#x16a;" horiz-adv-x="512" 
 />
    <glyph glyph-name="umacron" unicode="&#x16b;" horiz-adv-x="512" 
 />
    <glyph glyph-name="Ubreve" unicode="&#x16c;" horiz-adv-x="512" 
 />
    <glyph glyph-name="ubreve" unicode="&#x16d;" horiz-adv-x="512" 
 />
    <glyph glyph-name="Uring" unicode="&#x16e;" horiz-adv-x="512" 
 />
    <glyph glyph-name="uring" unicode="&#x16f;" horiz-adv-x="512" 
 />
    <glyph glyph-name="Uhungarumlaut" unicode="&#x170;" horiz-adv-x="512" 
 />
    <glyph glyph-name="uhungarumlaut" unicode="&#x171;" horiz-adv-x="512" 
 />
    <glyph glyph-name="Uogonek" unicode="&#x172;" horiz-adv-x="512" 
 />
    <glyph glyph-name="uogonek" unicode="&#x173;" horiz-adv-x="512" 
 />
    <glyph glyph-name="Wcircumflex" unicode="&#x174;" horiz-adv-x="512" 
 />
    <glyph glyph-name="wcircumflex" unicode="&#x175;" horiz-adv-x="512" 
 />
    <glyph glyph-name="Ycircumflex" unicode="&#x176;" horiz-adv-x="512" 
 />
    <glyph glyph-name="ycircumflex" unicode="&#x177;" horiz-adv-x="512" 
 />
    <glyph glyph-name="Ydieresis" unicode="&#x178;" horiz-adv-x="512" 
 />
    <glyph glyph-name="Zacute" unicode="&#x179;" horiz-adv-x="512" 
 />
    <glyph glyph-name="zacute" unicode="&#x17a;" horiz-adv-x="512" 
 />
    <glyph glyph-name="Zdotaccent" unicode="&#x17b;" horiz-adv-x="512" 
 />
    <glyph glyph-name="zdotaccent" unicode="&#x17c;" horiz-adv-x="512" 
 />
    <glyph glyph-name="Zcaron" unicode="&#x17d;" horiz-adv-x="512" 
 />
    <glyph glyph-name="zcaron" unicode="&#x17e;" horiz-adv-x="512" 
 />
    <glyph glyph-name="longs" unicode="&#x17f;" horiz-adv-x="512" 
 />
    <glyph glyph-name="florin" unicode="&#x192;" horiz-adv-x="512" 
 />
    <glyph glyph-name="uni01CD" unicode="&#x1cd;" horiz-adv-x="512" 
 />
    <glyph glyph-name="uni01CE" unicode="&#x1ce;" horiz-adv-x="512" 
 />
    <glyph glyph-name="uni01CF" unicode="&#x1cf;" horiz-adv-x="512" 
 />
    <glyph glyph-name="uni01D0" unicode="&#x1d0;" horiz-adv-x="512" 
 />
    <glyph glyph-name="uni01D1" unicode="&#x1d1;" horiz-adv-x="512" 
 />
    <glyph glyph-name="uni01D2" unicode="&#x1d2;" horiz-adv-x="512" 
 />
    <glyph glyph-name="uni01D3" unicode="&#x1d3;" horiz-adv-x="512" 
 />
    <glyph glyph-name="uni01D4" unicode="&#x1d4;" horiz-adv-x="512" 
 />
    <glyph glyph-name="uni01D5" unicode="&#x1d5;" horiz-adv-x="512" 
 />
    <glyph glyph-name="uni01D6" unicode="&#x1d6;" horiz-adv-x="512" 
 />
    <glyph glyph-name="uni01D7" unicode="&#x1d7;" horiz-adv-x="512" 
 />
    <glyph glyph-name="uni01D8" unicode="&#x1d8;" horiz-adv-x="512" 
 />
    <glyph glyph-name="uni01D9" unicode="&#x1d9;" horiz-adv-x="512" 
 />
    <glyph glyph-name="uni01DA" unicode="&#x1da;" horiz-adv-x="512" 
 />
    <glyph glyph-name="uni01DB" unicode="&#x1db;" horiz-adv-x="512" 
 />
    <glyph glyph-name="uni01DC" unicode="&#x1dc;" horiz-adv-x="512" 
 />
    <glyph glyph-name="uni01F5" unicode="&#x1f5;" horiz-adv-x="512" 
 />
    <glyph glyph-name="Aringacute" unicode="&#x1fa;" horiz-adv-x="512" 
 />
    <glyph glyph-name="aringacute" unicode="&#x1fb;" horiz-adv-x="512" 
 />
    <glyph glyph-name="AEacute" unicode="&#x1fc;" horiz-adv-x="512" 
 />
    <glyph glyph-name="aeacute" unicode="&#x1fd;" horiz-adv-x="512" 
 />
    <glyph glyph-name="Oslashacute" unicode="&#x1fe;" horiz-adv-x="512" 
 />
    <glyph glyph-name="oslashacute" unicode="&#x1ff;" horiz-adv-x="512" 
 />
    <glyph glyph-name="uni0250" unicode="&#x250;" horiz-adv-x="512" 
 />
    <glyph glyph-name="uni0251" unicode="&#x251;" horiz-adv-x="512" 
 />
    <glyph glyph-name="uni0252" unicode="&#x252;" horiz-adv-x="512" 
 />
    <glyph glyph-name="uni0253" unicode="&#x253;" horiz-adv-x="512" 
 />
    <glyph glyph-name="uni0254" unicode="&#x254;" horiz-adv-x="512" 
 />
    <glyph glyph-name="uni0255" unicode="&#x255;" horiz-adv-x="512" 
 />
    <glyph glyph-name="uni0256" unicode="&#x256;" horiz-adv-x="512" 
 />
    <glyph glyph-name="uni0257" unicode="&#x257;" horiz-adv-x="512" 
 />
    <glyph glyph-name="uni0258" unicode="&#x258;" horiz-adv-x="512" 
 />
    <glyph glyph-name="uni0259" unicode="&#x259;" horiz-adv-x="512" 
 />
    <glyph glyph-name="uni025A" unicode="&#x25a;" horiz-adv-x="512" 
 />
    <glyph glyph-name="uni025B" unicode="&#x25b;" horiz-adv-x="512" 
 />
    <glyph glyph-name="uni025C" unicode="&#x25c;" horiz-adv-x="512" 
 />
    <glyph glyph-name="uni025D" unicode="&#x25d;" horiz-adv-x="512" 
 />
    <glyph glyph-name="uni025E" unicode="&#x25e;" horiz-adv-x="512" 
 />
    <glyph glyph-name="uni025F" unicode="&#x25f;" horiz-adv-x="512" 
 />
    <glyph glyph-name="uni0260" unicode="&#x260;" horiz-adv-x="512" 
 />
    <glyph glyph-name="uni0261" unicode="&#x261;" horiz-adv-x="512" 
 />
    <glyph glyph-name="uni0262" unicode="&#x262;" horiz-adv-x="512" 
 />
    <glyph glyph-name="uni0263" unicode="&#x263;" horiz-adv-x="512" 
 />
    <glyph glyph-name="uni0264" unicode="&#x264;" horiz-adv-x="512" 
 />
    <glyph glyph-name="uni0265" unicode="&#x265;" horiz-adv-x="512" 
 />
    <glyph glyph-name="uni0266" unicode="&#x266;" horiz-adv-x="512" 
 />
    <glyph glyph-name="uni0267" unicode="&#x267;" horiz-adv-x="512" 
 />
    <glyph glyph-name="uni0268" unicode="&#x268;" horiz-adv-x="512" 
 />
    <glyph glyph-name="uni0269" unicode="&#x269;" horiz-adv-x="512" 
 />
    <glyph glyph-name="uni026A" unicode="&#x26a;" horiz-adv-x="512" 
 />
    <glyph glyph-name="uni026B" unicode="&#x26b;" horiz-adv-x="512" 
 />
    <glyph glyph-name="uni026C" unicode="&#x26c;" horiz-adv-x="512" 
 />
    <glyph glyph-name="uni026D" unicode="&#x26d;" horiz-adv-x="512" 
 />
    <glyph glyph-name="uni026E" unicode="&#x26e;" horiz-adv-x="512" 
 />
    <glyph glyph-name="uni026F" unicode="&#x26f;" horiz-adv-x="512" 
 />
    <glyph glyph-name="uni0270" unicode="&#x270;" horiz-adv-x="512" 
 />
    <glyph glyph-name="uni0271" unicode="&#x271;" horiz-adv-x="512" 
 />
    <glyph glyph-name="uni0272" unicode="&#x272;" horiz-adv-x="512" 
 />
    <glyph glyph-name="uni0273" unicode="&#x273;" horiz-adv-x="512" 
 />
    <glyph glyph-name="uni0274" unicode="&#x274;" horiz-adv-x="512" 
 />
    <glyph glyph-name="uni0275" unicode="&#x275;" horiz-adv-x="512" 
 />
    <glyph glyph-name="uni0276" unicode="&#x276;" horiz-adv-x="512" 
 />
    <glyph glyph-name="uni0277" unicode="&#x277;" horiz-adv-x="512" 
 />
    <glyph glyph-name="uni0278" unicode="&#x278;" horiz-adv-x="512" 
 />
    <glyph glyph-name="uni0279" unicode="&#x279;" horiz-adv-x="512" 
 />
    <glyph glyph-name="uni027A" unicode="&#x27a;" horiz-adv-x="512" 
 />
    <glyph glyph-name="uni027B" unicode="&#x27b;" horiz-adv-x="512" 
 />
    <glyph glyph-name="uni027C" unicode="&#x27c;" horiz-adv-x="512" 
 />
    <glyph glyph-name="uni027D" unicode="&#x27d;" horiz-adv-x="512" 
 />
    <glyph glyph-name="uni027E" unicode="&#x27e;" horiz-adv-x="512" 
 />
    <glyph glyph-name="uni027F" unicode="&#x27f;" horiz-adv-x="512" 
 />
    <glyph glyph-name="uni0280" unicode="&#x280;" horiz-adv-x="512" 
 />
    <glyph glyph-name="uni0281" unicode="&#x281;" horiz-adv-x="512" 
 />
    <glyph glyph-name="uni0282" unicode="&#x282;" horiz-adv-x="512" 
 />
    <glyph glyph-name="uni0283" unicode="&#x283;" horiz-adv-x="512" 
 />
    <glyph glyph-name="uni0284" unicode="&#x284;" horiz-adv-x="512" 
 />
    <glyph glyph-name="uni0285" unicode="&#x285;" horiz-adv-x="512" 
 />
    <glyph glyph-name="uni0286" unicode="&#x286;" horiz-adv-x="512" 
 />
    <glyph glyph-name="uni0287" unicode="&#x287;" horiz-adv-x="512" 
 />
    <glyph glyph-name="uni0288" unicode="&#x288;" horiz-adv-x="512" 
 />
    <glyph glyph-name="uni0289" unicode="&#x289;" horiz-adv-x="512" 
 />
    <glyph glyph-name="uni028A" unicode="&#x28a;" horiz-adv-x="512" 
 />
    <glyph glyph-name="uni028B" unicode="&#x28b;" horiz-adv-x="512" 
 />
    <glyph glyph-name="uni028C" unicode="&#x28c;" horiz-adv-x="512" 
 />
    <glyph glyph-name="uni028D" unicode="&#x28d;" horiz-adv-x="512" 
 />
    <glyph glyph-name="uni028E" unicode="&#x28e;" horiz-adv-x="512" 
 />
    <glyph glyph-name="uni028F" unicode="&#x28f;" horiz-adv-x="512" 
 />
    <glyph glyph-name="uni0290" unicode="&#x290;" horiz-adv-x="512" 
 />
    <glyph glyph-name="uni0291" unicode="&#x291;" horiz-adv-x="512" 
 />
    <glyph glyph-name="uni0292" unicode="&#x292;" horiz-adv-x="512" 
 />
    <glyph glyph-name="uni0293" unicode="&#x293;" horiz-adv-x="512" 
 />
    <glyph glyph-name="uni0294" unicode="&#x294;" horiz-adv-x="512" 
 />
    <glyph glyph-name="uni0295" unicode="&#x295;" horiz-adv-x="512" 
 />
    <glyph glyph-name="uni0296" unicode="&#x296;" horiz-adv-x="512" 
 />
    <glyph glyph-name="uni0297" unicode="&#x297;" horiz-adv-x="512" 
 />
    <glyph glyph-name="uni0298" unicode="&#x298;" horiz-adv-x="512" 
 />
    <glyph glyph-name="uni0299" unicode="&#x299;" horiz-adv-x="512" 
 />
    <glyph glyph-name="uni029A" unicode="&#x29a;" horiz-adv-x="512" 
 />
    <glyph glyph-name="uni029B" unicode="&#x29b;" horiz-adv-x="512" 
 />
    <glyph glyph-name="uni029C" unicode="&#x29c;" horiz-adv-x="512" 
 />
    <glyph glyph-name="uni029D" unicode="&#x29d;" horiz-adv-x="512" 
 />
    <glyph glyph-name="uni029E" unicode="&#x29e;" horiz-adv-x="512" 
 />
    <glyph glyph-name="uni029F" unicode="&#x29f;" horiz-adv-x="512" 
 />
    <glyph glyph-name="uni02A0" unicode="&#x2a0;" horiz-adv-x="512" 
 />
    <glyph glyph-name="uni02A1" unicode="&#x2a1;" horiz-adv-x="512" 
 />
    <glyph glyph-name="uni02A2" unicode="&#x2a2;" horiz-adv-x="512" 
 />
    <glyph glyph-name="uni02A3" unicode="&#x2a3;" horiz-adv-x="512" 
 />
    <glyph glyph-name="uni02A4" unicode="&#x2a4;" horiz-adv-x="512" 
 />
    <glyph glyph-name="uni02A5" unicode="&#x2a5;" horiz-adv-x="512" 
 />
    <glyph glyph-name="uni02A6" unicode="&#x2a6;" horiz-adv-x="512" 
 />
    <glyph glyph-name="uni02A7" unicode="&#x2a7;" horiz-adv-x="512" 
 />
    <glyph glyph-name="uni02A8" unicode="&#x2a8;" horiz-adv-x="512" 
 />
    <glyph glyph-name="circumflex" unicode="&#x2c6;" horiz-adv-x="512" 
 />
    <glyph glyph-name="caron" unicode="&#x2c7;" horiz-adv-x="512" 
 />
    <glyph glyph-name="uni02C9" unicode="&#x2c9;" horiz-adv-x="512" 
 />
    <glyph glyph-name="breve" unicode="&#x2d8;" horiz-adv-x="512" 
 />
    <glyph glyph-name="dotaccent" unicode="&#x2d9;" horiz-adv-x="512" 
 />
    <glyph glyph-name="ring" unicode="&#x2da;" horiz-adv-x="512" 
 />
    <glyph glyph-name="ogonek" unicode="&#x2db;" horiz-adv-x="512" 
 />
    <glyph glyph-name="tilde" unicode="&#x2dc;" horiz-adv-x="512" 
 />
    <glyph glyph-name="hungarumlaut" unicode="&#x2dd;" horiz-adv-x="512" 
 />
    <glyph glyph-name="uni0374" unicode="&#x374;" horiz-adv-x="512" 
 />
    <glyph glyph-name="uni0375" unicode="&#x375;" horiz-adv-x="512" 
 />
    <glyph glyph-name="uni037A" unicode="&#x37a;" horiz-adv-x="512" 
 />
    <glyph glyph-name="uni037E" unicode="&#x37e;" horiz-adv-x="512" 
 />
    <glyph glyph-name="tonos" unicode="&#x384;" horiz-adv-x="512" 
 />
    <glyph glyph-name="dieresistonos" unicode="&#x385;" horiz-adv-x="512" 
 />
    <glyph glyph-name="Alphatonos" unicode="&#x386;" horiz-adv-x="512" 
 />
    <glyph glyph-name="anoteleia" unicode="&#x387;" horiz-adv-x="512" 
 />
    <glyph glyph-name="Epsilontonos" unicode="&#x388;" horiz-adv-x="512" 
 />
    <glyph glyph-name="Etatonos" unicode="&#x389;" horiz-adv-x="512" 
 />
    <glyph glyph-name="Iotatonos" unicode="&#x38a;" horiz-adv-x="512" 
 />
    <glyph glyph-name="Omicrontonos" unicode="&#x38c;" horiz-adv-x="512" 
 />
    <glyph glyph-name="Upsilontonos" unicode="&#x38e;" horiz-adv-x="512" 
 />
    <glyph glyph-name="Omegatonos" unicode="&#x38f;" horiz-adv-x="512" 
 />
    <glyph glyph-name="iotadieresistonos" unicode="&#x390;" horiz-adv-x="512" 
 />
    <glyph glyph-name="Alpha" unicode="&#x391;" 
d="M236 24q-16 2 -28 12q-12 14 -10 36q73 179 135 361t146 355q14 12 36 10q22 -6 40 -16q12 -20 14 -42h4l10 -12q82 -155 153.5 -315t139.5 -321h4q12 -14 10 -36l-10 -20q-16 -14 -40 -10l-20 10q-30 54 -53.5 111.5t-47.5 113.5l-58 8h-234l-60 -4l-10 2
q-22 -58 -43 -116.5t-43 -114.5q-17 -10 -35 -12zM677 347q-34 88 -75 171t-85 166l-6 2q-34 -85 -65 -171t-59 -172h8l26 4h248l6 -2z" />
    <glyph glyph-name="Beta" unicode="&#x392;" 
d="M305 12l-20 10q-12 16 -12 38q6 44 8 89v200q-4 82 -14 163t-15 164l10 52t15 50q14 12 36 10l54 -2l64 10h138q40 -8 76 -24t70 -36l28 -24l6 -6q18 -22 28.5 -47t6.5 -58q-2 -44 -31 -76q-36 -28 -76 -52l-36 -16l-2 -6q32 -16 63 -34t61 -38v-4l13 -6l8 -14h4l10 -12
v-4h4l12 -14q16 -24 24 -52t6 -60q-8 -44 -38 -78l-10 -10l-14 -12q-97 -65 -207 -82t-224 -15l-18 2q-12 -8 -28 -6zM687 149l52 32l18 22q10 16 8 38q-6 26 -24 46l-4 2q-26 34 -62 53t-70 39q-52 10 -107 10t-109 6l-30 -6l-2 -32l2 -2v-216l-2 -47h50q74 2 145 13.5
t135 41.5zM639 543l56 38q12 18 10 45l-18 30q-28 22 -60 38t-66 24h-126q-46 -10 -98 -10l-6 -64l18 -173h16q70 12 140 26t134 46z" />
    <glyph glyph-name="Gamma" unicode="&#x393;" 
d="M315 -4l-20 10q-14 18 -12 44q8 44 6 93l-2 2v138l-2 2v196l2 2v96q4 34 8 69.5t2 73.5q-10 14 -8 32l10 20q20 14 46 10l52 -2l2 2h82l2 -2h108l34 -4h151q20 0 34 -12q12 -14 10 -36l-10 -20q-18 -12 -40 -12l-3 2h-150l-34 4h-108l-70 2l-30 -2q2 -34 -2 -67.5
t-8 -65.5v-96l-2 -2v-180l2 -2v-138l2 -71q0 -40 -16 -76q-14 -12 -36 -10z" />
    <glyph glyph-name="uni0394" unicode="&#x394;" 
d="M802 -24l-16 4h-121q-44 6 -91 7t-93 5h-212l-33 -2l-16 2l-28 -4l-20 10q-12 14 -10 36q88 185 166.5 375t158.5 377q14 12 36 10l20 -10q76 -191 148 -383t163 -375q-6 -22 -16 -42q-14 -12 -36 -10zM755 60q-72 145 -131 297t-113 305h-6q-44 -153 -110 -298
t-124 -294h218l184 -12h80z" />
    <glyph glyph-name="Epsilon" unicode="&#x395;" 
d="M772 -6q-41 6 -82 7t-81 5h-180q-26 -4 -56 -4t-56 -4l-20 10q-10 12 -12 28v145q-6 34 -6 70v124q6 46 7 94t5 96v167l-4 26l10 20q38 20 84 16h100l38 -4h100q38 -4 79 -3t76 -13q12 -14 10 -36l-10 -20q-41 -16 -89 -10l-74 4h-100l-38 4h-88l-16 -2v-157l-4 -98h10
l30 4h108l2 2h136q30 2 54 -12q12 -16 10 -38l-10 -20q-26 -16 -60 -10l-2 2h-122l-2 -2h-112l-48 -4l-2 -14v-108l6 -70v-109h36l24 4h194q50 -6 103.5 -7t99.5 -15q12 -16 10 -38l-10 -20q-20 -14 -48 -10z" />
    <glyph glyph-name="Zeta" unicode="&#x396;" 
d="M778 28l-37 8h-140l-118 8h-208q-21 4 -37 14q-12 14 -10 36l14 27l37 48q32 34 56 74q18 40 42 78q24 32 47 66t49 66q32 36 59 76t61 78l30 43l6 2l32 52h-118l-2 -2h-134l-54 -2q-40 0 -72 18q-12 14 -10 36l10 20q14 12 36 10q40 -6 84 -6l2 2h134l2 2h134
q30 -2 60 -3t55 -13q12 -14 10 -36l-10 -20h-4v-4l-37 -30l-8 -8h-4v-4h-4v-4l-46 -63l-8 -8q-18 -20 -32 -44l-14 -16h-4l-20 -30l-64 -88h-4l-6 -12l-6 -6q-28 -34 -53 -72t-51 -76q-10 -24 -25 -47t-29 -47l-14 -18l-8 -10h144l118 -8h140q33 -2 59 -19q12 -14 10 -36
l-10 -20q-14 -10 -30 -12z" />
    <glyph glyph-name="Eta" unicode="&#x397;" 
d="M254 -14l-20 10q-16 22 -12 52l8 50v115l-4 52v208l-4 80l10 121v94l10 20q15 12 37 10l20 -10q10 -14 12 -30v-92q-4 -34 -6 -69.5t-4 -69.5l4 -80h4l100 10h92l42 4h102l90 -4v72q-4 44 -10 89.5t-6 91.5q2 50 20 94q14 12 37 10l20 -10q14 -18 10 -44l-8 -84l16 -139
v-90l-4 -124l6 -60v-142l-2 -2v-103l-10 -20q-14 -12 -37 -10l-20 10q-10 12 -12 28v103l2 2v126q-2 30 -5 61t-1 63l-94 4h-92l-42 -4h-90l-108 -10v-96l4 -52v-131q-4 -50 -18 -94q-14 -12 -37 -10z" />
    <glyph glyph-name="Theta" unicode="&#x398;" 
d="M509 -20q-58 12 -112 32t-104 50q-45 48 -70 103.5t-33 117.5v84q6 88 24 173.5t73 157.5q34 36 76 64q42 22 86 43t100 13q32 -12 65 -26t63 -34l12 -10l26 -22l14 -14l8 -8v-4h4l8 -16h4q69 -91 92 -198t25 -217q-4 -36 -16 -68t-32 -60h-4q-18 -31 -40 -59l-6 -6
l-19 -16q-54 -38 -115 -60t-129 -20zM641 86q42 20 80 53q28 34 50.5 72t20.5 86q-4 94 -27.5 184t-83.5 167q-18 18 -39 36t-45 30q-36 16 -74 26q-38 -6 -73 -22t-67 -38l-2 -4q-24 -14 -38 -36h-4q-44 -79 -57 -168t-13 -181q4 -38 17 -72t33 -64l4 -2l10 -12
q10 -18 26 -28q46 -17 91 -36t97 -19q50 8 94 28zM357 367l-20 10q-12 14 -10 36l10 20q20 14 46 14h152l72 2l2 -2h84l20 -10q12 -14 10 -36l-10 -20q-14 -10 -30 -12h-82l-58 2l-2 -2h-158z" />
    <glyph glyph-name="Iota" unicode="&#x399;" 
d="M513 -2q-16 2 -28 12q-12 14 -10 36l2 2v179l-6 86v144l6 58v113l-2 2v140q2 16 12 28q14 12 36 10l20 -10l10 -20v-140l2 -2v-129l-6 -58v-128l6 -86v-201l-12 -24q-14 -10 -30 -12z" />
    <glyph glyph-name="Kappa" unicode="&#x39a;" 
d="M273 -2l-21 10q-16 26 -12 60l10 77v148q7 54 8 108t7 108v131l-4 110q0 26 14 46q14 12 36 10l20 -10q14 -18 10 -44l-2 -68l4 -36v-147l-6 -58h4l32 30h4v4l24 20q48 44 98 89.5t92 97.5l90 90q22 22 54 22l20 -10q12 -14 10 -36l-10 -20l-20 -16l-18 -20l-12 -6
l-6 -12l-8 -8l-14 -14l-24 -22l-14 -17l-18 -20l-16 -18l-34 -34l-12 -6v-4l-22 -20q-18 -8 -28 -26l-6 -4v-6l10 -16l12 -6v-4l10 -4v-4l8 -4l2 -6l14 -10l16 -14l16 -26l6 -4l22 -24l18 -24q16 -26 42 -44l16 -16v-4l34 -22l6 -12h4l14 -16l10 -12v-4h4l11 -10l10 -12
l6 -12h4l32 -48h4q28 -27 28 -63l-10 -20q-14 -12 -36 -10l-24 14l-49 64l-36 43q-28 42 -70 68l-36 34l-60 78l-6 2l-32 36v4h-4v4h-4v4l-6 2l-2 6h-4l-38 40h-6l-8 -8l-32 -28l-6 -6l-32 -26h-4l-10 -16h-4v-4l-10 -4l-4 -48v-148q-4 -33 -7 -66t-13 -63q-14 -12 -36 -10z
" />
    <glyph glyph-name="Lambda" unicode="&#x39b;" 
d="M236 32l-20 10q-10 16 -12 34q71 177 132 358t131 358q14 12 36 10q16 -2 30 -12q66 -187 141 -369t164 -359l-10 -20q-14 -12 -36 -10l-20 10q-83 149 -152 303t-115 319l-6 2q-52 -159 -107 -315t-119 -309q-14 -12 -37 -10z" />
    <glyph glyph-name="Mu" unicode="&#x39c;" 
d="M174 0l-20 10q-16 26 -12 62l4 32v165l-2 2v124q4 84 15 168.5t13 170.5l-2 20l10 20q14 12 36 10l26 -14q65 -157 135 -311t134 -310l6 -2q68 166 135 333.5t170 317.5q14 12 36 10l20 -10q12 -36 12 -78v-82q-4 -37 -7 -73t-5 -74v-150l6 -62v-245l-10 -20
q-14 -12 -36 -10l-20 10q-10 12 -12 28v229l-6 64v164l8 116h-4q-85 -140 -130 -295t-133 -292q-16 -14 -38 -12l-20 10q-58 137 -120 271t-119 270l-6 2q-4 -44 -9 -89t-7 -91v-110l2 -2v-179q0 -48 -14 -88q-14 -12 -36 -10z" />
    <glyph glyph-name="Nu" unicode="&#x39d;" 
d="M250 -14l-20 10q-12 14 -14 30v123l2 2v100l-10 234v82l-2 2v81q4 26 4 55t6 55l-4 28l10 20q14 12 37 10l20 -10l34 -64h4q32 -42 57 -88.5t53 -90.5l4 -2l42 -68h4l50 -68l26 -42h4l26 -34q38 -52 72 -107t72 -107h4l14 -14v78q-2 62 -8 123t-6 123l6 116v95l-2 80
q2 48 22 88q15 12 37 10l20 -10q12 -16 10 -38q-6 -28 -9 -58t-1 -62l2 -2v-111l-6 -174q8 -74 11 -151t5 -154q2 -32 -12 -56l-14 -16q-16 -14 -41 -12l-20 10q-22 32 -50 62l-4 2l-6 6l-32 41q-86 136 -182 265t-180 266v-67l2 -2v-84l10 -232v-116l-2 -2v-103l2 -22
l-10 -20q-14 -12 -37 -10z" />
    <glyph glyph-name="Xi" unicode="&#x39e;" 
d="M778 -10l-51 6h-236l-62 2l-2 -2h-94q-48 -4 -87 14q-12 14 -10 36l10 20q43 16 93 10l2 -2h80l74 2l2 -2h238q51 -2 97 -16q12 -16 10 -38l-10 -20q-22 -16 -54 -10zM645 367l-50 4h-226l-20 10q-12 14 -10 36l10 20q12 10 28 12h226q30 -4 62 -3t60 -11q12 -14 10 -36
l-10 -20q-36 -18 -80 -12zM741 690l-2 2h-234l-62 6h-94q-50 0 -92 18q-13 14 -11 36l11 20q22 14 52 10l48 -6h94l60 -6h236q23 0 39 -12q12 -14 10 -36l-10 -20q-19 -14 -45 -12z" />
    <glyph glyph-name="Omicron" unicode="&#x39f;" 
d="M489 0q-46 8 -88 25t-78 47q-56 59 -75.5 134t-29.5 153v90q10 72 25.5 142.5t63.5 128.5q50 34 101 65t115 33q44 -10 87 -24t79 -44l12 -10l16 -14v-4l12 -6l14 -16q51 -62 85 -133.5t36 -151.5v-82q-6 -48 -21 -93t-45 -83l-26 -34h-5v-4l-16 -21l-6 -6l-6 -6l-10 -12
h-4v-4q-52 -34 -111 -54t-125 -16zM595 92q44 14 82 45l2 4l6 6l22 26q28 34 52 70q17 38 23 79t4 85q-2 66 -30.5 125t-68.5 112q-18 18 -39 36t-43 32q-24 6 -48 15t-50 11q-42 -10 -79 -32t-71 -48q-36 -67 -49 -140t-11 -151q6 -56 19 -111t41 -103l4 -2l16 -18l6 -6v-4
q36 -21 74 -35t82 -10z" />
    <glyph glyph-name="Pi" unicode="&#x3a0;" 
d="M333 -12l-20 10q-12 16 -12 38l2 2v113l2 36l-12 198v214l8 99l-2 6h-64.5t-58.5 14q-12 14 -10 36l10 20q20 14 46 10l2 -2h319l2 2h220q47 0 87 -16q12 -16 10 -38l-10 -20q-18 -14 -42 -10l-85 6q-8 -30 -6 -64l2 -2v-107l6 -110v-126q4 -40 5 -82t5 -82v-111l-10 -20
q-14 -12 -36 -10l-20 10q-10 12 -12 28v93l-10 166v126l-6 110v107l-2 68l2 6h-92l-2 -2h-170q2 -30 -2 -57.5t-6 -55.5v-198l12 -248l-2 -2v-115q-2 -16 -12 -30q-14 -12 -36 -10z" />
    <glyph glyph-name="Rho" unicode="&#x3a1;" 
d="M295 -10l-20 10q-18 42 -16 94q2 51 9 101t7 102v90l-10 122v171q4 30 4 61t14 57q14 12 36 10l22 -10l74 10h112q68 -12 134 -34t125 -64q26 -34 35 -75.5t7 -87.5q-14 -44 -38 -84l-6 -6l-21 -12v-4l-6 -6h-4v-4q-48 -38 -107 -48t-121 -14h-94l-78 4v-84
q-2 -54 -8 -106t-8 -107l4 -56l-10 -20q-14 -12 -36 -10zM651 465q28 8 50 26l2 4q24 14 36 38q14 26 10 60q-2 35 -20 63q-48 28 -101 46t-109 28h-98l-74 -8l-4 -50v-155l6 -64l90 -6h80q34 4 67 7t65 11z" />
    <glyph glyph-name="Sigma" unicode="&#x3a3;" 
d="M265 0l-33 16q-12 16 -10 38l22 34l6 2l4 6l17 23h4q20 34 46 64l24 26l8 8l20 20l6 6l28 28h4l6 12l22 22h4l18 26l6 6l52 66v6q-18 30 -39 59t-43 57l-48 58l-14 16l-10 10l-32 35l-10 10q-22 26 -39 55t-25 61l10 20q20 16 46 14l62 -10h176l2 2h202l21 -10
q12 -14 10 -36l-10 -20q-15 -10 -31 -12h-186l-2 -2h-182v-4h2v-4h4v-4h4l6 -6v-4h4l12 -12l6 -12h4l6 -6v-4h4l6 -6l14 -16l6 -12h4l34 -45l6 -12h4l22 -28l28 -44h4l36 -60l6 -2q14 -16 12 -40l-20 -32l-10 -10h-4l-6 -12l-22 -30h-4l-8 -16h-4l-6 -12l-6 -6l-6 -6
l-24 -30l-12 -6v-4l-20 -24l-8 -8l-12 -6v-4l-6 -6l-6 -6l-14 -14l-8 -8h-4l-6 -12l-12 -12l-8 -8h-4l-16 -27l-8 -12h6l126 12h138l2 2h86q50 -4 95 -22q12 -16 10 -38l-10 -20q-16 -12 -39 -10q-32 8 -66 11t-70 1l-2 -2h-138q-56 -2 -110 -9t-110 -9z" />
    <glyph glyph-name="Tau" unicode="&#x3a4;" 
d="M495 24l-20 10q-14 20 -12 46l10 87v178l-2 2v128l2 2v94l-8 145h-48l-126 -8q-45 -4 -79 14q-12 14 -10 36l10 20q38 16 85 10l20 -2l96 8h90l2 -2h122q48 -4 97.5 -5t93.5 -17q12 -14 10 -36l-10 -20q-18 -14 -44 -12q-57 8 -115 10t-116 2v-14l8 -121v-108l-2 -2v-114
l2 -2v-194q-6 -30 -6 -63.5t-14 -61.5q-14 -12 -36 -10z" />
    <glyph glyph-name="Upsilon" unicode="&#x3a5;" 
d="M513 -12l-20 10q-16 30 -18 64v87q2 32 5 63t1 65q0 58 -11 111t-53 93h-4q-18 28 -42 50l-36 44l-58 77l-31 40l-4 2l-36 40q-12 14 -10 36l10 20q14 12 36 10q23 -8 39 -26l8 -8l4 -10h4l12 -14l14 -18l34 -52h4l28 -36l28 -35l28 -30l12 -14l12 -22h4l16 -26l6 -4
l18 -30h6q26 52 62 101.5t72 99.5l38 40l8 8l8 8l6 6l6 6l24 24h4l6 12l27 30q14 12 36 10l20 -10q12 -14 10 -36q-12 -26 -32 -48h-4l-6 -12l-14 -14l-10 -10l-6 -6l-7 -6l-22 -22l-32 -35l-36 -48h-4q-36 -52 -70 -105t-52 -111l8 -72v-86q-4 -30 -5 -63.5t-1 -65.5
q8 -24 6 -52l-10 -20q-14 -12 -36 -10z" />
    <glyph glyph-name="Phi" unicode="&#x3a6;" 
d="M501 -16l-20 10q-16 30 -16 67v74q-50 2 -98 13t-86 43l-2 6l-47 30q-38 38 -53 86t-19 102q4 40 15 77t35 67h4l10 16l45 46q42 41 92 61t106 28q2 28 5 54t15 50q14 12 36 10l20 -10q14 -18 10 -44l-8 -56q60 -12 117 -33t108 -58v-4l20 -12l14 -12v-4l12 -6l10 -10
q20 -24 34 -50t26 -54v-82q-8 -38 -24 -73t-40 -65l-8 -8l-10 -10l-6 -6l-6 -6l-8 -8q-53 -40 -115 -54t-126 -24v-71l4 -50l-10 -20q-14 -12 -36 -10zM467 213v30l10 108q-4 36 -7 72t-3 74v108l-2 23h-14q-34 -7 -64 -21t-56 -36l-2 -4l-6 -6l-36 -38l-16 -18h-4
q-15 -26 -22 -54t-7 -58q8 -24 14.5 -49t22.5 -45l4 -2v-4h4q24 -22 52 -42v-4h4l8 -8q28 -12 58 -18t62 -8zM707 257l36 30l16 16l21 22q16 28 24 60t4 68q-14 36 -38 68l-7 4q-46 46 -102 71t-118 34v-15l2 -2v-108q0 -48 5 -95t5 -95l-10 -100h12q38 8 77 16t73 26z" />
    <glyph glyph-name="Chi" unicode="&#x3a7;" 
d="M271 -16l-21 10q-12 16 -10 38q63 95 123 192t108 201q-22 30 -42 60t-42 58h-4l-72 93l-10 18h-4q-16 28 -34.5 56t-22.5 62l10 20q15 12 37 10l20 -10q18 -28 33 -57t39 -55l4 -2l4 -10h4l26 -36l12 -15l20 -32h4l8 -16h4l6 -6l36 -56h4q32 54 68 107.5t80 103.5l6 2
q16 22 30 44t26 46q14 12 36 10l21 -10q12 -16 10 -38q-16 -40 -43 -74h-4l-8 -16h-4l-8 -16l-10 -10l-10 -12l-22 -27l-14 -18h-4q-26 -42 -53 -83t-43 -87l12 -12q40 -52 71 -106t63 -108l6 -6l6 -12h4l12 -20h4q20 -36 43.5 -71.5t33.5 -77.5l-10 -20q-14 -12 -36 -10
l-21 10q-22 32 -41 66t-41 67l-4 2l-6 12h-4q-38 50 -65 105t-65 105h-4q-30 -64 -66 -124t-74 -123l-22 -28l-52 -82q-16 -14 -38 -12z" />
    <glyph glyph-name="Psi" unicode="&#x3a8;" 
d="M513 -18q-16 2 -28 12l-10 20v253l-2 26q-50 12 -100 27t-90 53l-6 6q-53 92 -58 196.5t-43 200.5l10 20q14 12 36 10l20 -10q45 -84 51 -180.5t42 -184.5h4v-4h4l12 -10v-4q26 -14 56 -22t58 -18v10l-8 68v197q4 40 6 80t16 76q14 12 36 10l20 -10q14 -18 10 -42
l-10 -122v-181q6 -44 8 -88h10q30 6 57 24t51 38q56 76 61 170.5t70 164.5q22 22 52 20l20 -10q12 -14 10 -36l-12 -22l-30 -28h-4v-4h-4q-20 -75 -33 -154t-64 -143l-12 -14h-4v-4l-12 -10l-16 -14h-4v-4q-30 -20 -62 -35t-70 -17v-16l2 -2v-261l-10 -20q-14 -10 -30 -12z
" />
    <glyph glyph-name="uni03A9" unicode="&#x3a9;" 
d="M607 6q-18 2 -32 14l-10 20v137l-6 66q2 16 14 30q32 18 65 31t61 39l2 4l40 50q24 24 41 54q14 38 10 82q-6 28 -20.5 54t-30.5 51l-4 2q-20 24 -44 42t-52 30q-22 12 -47 19t-53 3q-50 -6 -96 -22t-86 -46l-2 -6h-4v-4h-4v-4l-6 -6l-12 -12q-28 -33 -46 -69
q-16 -32 -14 -72q8 -32 21 -61t29 -57l4 -2l28 -32v-4h4l6 -6v-4q24 -22 52 -32t56 -24l10 -20v-84q-8 -32 -7 -69.5t-13 -67.5q-18 -14 -42 -14q-28 4 -56 5t-58 1l-2 -2h-83l-20 10q-12 14 -10 36l10 20q36 14 78.5 13t84.5 1l32 -2l8 115q-26 10 -49 25t-45 33l-44 48
q-33 46 -54 99t-19 113q8 44 29 82.5t50 74.5l26 26l8 8q62 50 137 71t157 19q44 -14 85 -34t79 -50l11 -10l6 -12l12 -6l6 -6q36 -46 57 -99.5t15 -115.5q-6 -28 -14 -53t-26 -47h-4l-32 -46h-4l-16 -26h-4l-7 -12q-20 -18 -43 -34t-47 -30l-30 -10l-2 -34l2 -2v-99h114
q47 4 85 -12q12 -14 10 -36l-10 -20q-40 -18 -91 -12l-2 2h-106z" />
    <glyph glyph-name="Iotadieresis" unicode="&#x3aa;" horiz-adv-x="512" 
 />
    <glyph glyph-name="Upsilondieresis" unicode="&#x3ab;" horiz-adv-x="512" 
 />
    <glyph glyph-name="alphatonos" unicode="&#x3ac;" horiz-adv-x="512" 
 />
    <glyph glyph-name="epsilontonos" unicode="&#x3ad;" horiz-adv-x="512" 
 />
    <glyph glyph-name="etatonos" unicode="&#x3ae;" horiz-adv-x="512" 
 />
    <glyph glyph-name="iotatonos" unicode="&#x3af;" horiz-adv-x="512" 
 />
    <glyph glyph-name="upsilondieresistonos" unicode="&#x3b0;" horiz-adv-x="512" 
 />
    <glyph glyph-name="alpha" unicode="&#x3b1;" 
d="M677 -18q-34 6 -60 30q-22 22 -31 48t-13 55h-4v-2h-4v-5l-8 -8l-22 -22l-14 -14l-12 -6v-4l-12 -6v-4q-36 -32 -78 -47t-92 -13q-28 2 -54.5 12t-46.5 32q-26 32 -33 71.5t-9 81.5q8 76 44.5 141t90.5 121q22 24 49 43t53 35q36 16 76 24t86 4q22 -8 40 -24l26 -22
q18 -24 30 -51t14 -59h4q20 40 42 80t39 82q14 12 36 10l20 -10q12 -16 10 -38q-24 -62 -55.5 -121t-67.5 -117l-24 -26l-34 -36l-12 -14l-6 -54q6 -43 24 -79l6 -2v-4l32 -4q36 28 79 36l20 -10q12 -16 10 -38l-10 -20l-39 -22v-4q-38 -24 -90 -20zM413 80q24 16 47 37.5
t43 43.5l14 14l40 46l26 28q10 36 23 71t9 77q-8 32 -32 58q-26 24 -68 16q-34 -10 -65 -26t-59 -40l-8 -12l-16 -16q-18 -20 -36 -41t-30 -45q-16 -32 -27 -66t-11 -72q4 -38 20 -73q36 -24 84 -18z" />
    <glyph glyph-name="beta" unicode="&#x3b2;" 
d="M230 -130l-20 10q-16 22 -12 54q2 84 22 163.5t41 159.5v80q16 104 39 208.5t85 194.5q18 20 40 34t42 28q36 20 77 30t87 6q32 -6 61 -18t55 -32q27 -34 35 -77t6 -90q-4 -46 -39 -80h-4v-4l-10 -10h-4v-4l-16 -14l-48 -30v-4l-42 -30q30 -20 58 -44l6 -6l16 -20
q28 -32 43 -70t11 -84q-6 -38 -28 -70l-12 -14l-22 -22q-54 -47 -120 -60t-136 -13q-46 10 -88 30q-14 16 -12 38l10 21q16 12 38 10l66 -20q60 0 114 13t94 59q20 26 18 62q-10 34 -32 64l-4 2l-12 20h-4l-24 20l-8 8v4q-36 26 -82 26l-70 -12q-16 2 -28 12q-12 14 -10 36
l10 20q66 14 128 41t116 71l2 4l20 18l22 24q6 31 4 63q-6 30 -18 58q-26 14 -53 22t-59 4q-28 -6 -54 -19t-52 -27v-4l-22 -12q-56 -83 -77 -178t-35 -191v-80q-24 -90 -43 -182.5t-29 -186.5q-15 -12 -37 -10z" />
    <glyph glyph-name="gamma" unicode="&#x3b3;" 
d="M379 -122l-20 10q-12 14 -10 36q22 72 43 144.5t47 142.5q-14 14 -10 36l2 8q-6 58 -8 118t-18 116h-30l-24 -8l-20 -34q-14 -12 -36 -10l-20 10q-12 16 -10 38l34 54q24 18 53 25t61 3q22 -4 42 -18l2 -6l6 -4q28 -48 33 -106t7 -118h4l12 14l10 10q26 26 53 54t57 52
l44 38l54 50q30 32 73 32l20 -10q12 -14 10 -36l-10 -20l-32 -16v-4l-6 -6h-4v-4l-33 -30l-12 -6v-4l-6 -6h-4v-4l-12 -6v-4l-20 -16l-8 -8l-16 -14q-26 -14 -40 -38h-4v-4l-16 -14q-18 -12 -28 -30l-6 -6h-4v-4l-6 -6l-22 -28h-4q-48 -80 -74 -171.5t-56 -179.5
q-16 -14 -38 -12z" />
    <glyph glyph-name="delta" unicode="&#x3b4;" 
d="M435 -8q-34 6 -67 17t-61 35q-40 44 -58.5 97.5t-12.5 115.5q6 44 27.5 82t45.5 74l16 14l20 22l12 6v4q34 26 71 46t79 28v6q-34 38 -64 79.5t-28 95.5q6 30 24 54q20 18 44 28t52 6q44 -6 84 -17t76 -35l26 -20l8 -8q24 -34 46.5 -67.5t30.5 -73.5l-10 -20
q-14 -12 -37 -10l-20 10q-16 26 -32 53.5t-34 53.5l-6 2v4q-32 24 -71 35t-81 15l-18 -12l-4 -20l24 -46h4l14 -16q16 -27 38 -45l10 -18h4l22 -26v-4l22 -10v-4l10 -6l2 -6l6 -2v-4h4v-4h4v-4h4l22 -30q16 -32 27 -68t19 -72v-90q-8 -44 -24 -84t-46 -75l-12 -14h-4v-4
l-14 -12q-40 -32 -90 -45t-104 -11zM561 96q42 31 66 75q18 32 22 70t2 78q-10 36 -21 73t-41 65q-14 12 -34 8q-44 -8 -82 -26t-74 -46v-4l-20 -22l-14 -8q-24 -36 -40 -76t-10 -90q10 -48 42 -87l4 -2l6 -6v-4q26 -12 54 -18t58 -6q44 8 82 26z" />
    <glyph glyph-name="epsilon" unicode="&#x3b5;" 
d="M433 -6q-30 4 -58 13t-52 31q-32 30 -50 70l-6 47q4 36 20 68t44 58l8 8l42 30l-24 16l-6 6q-32 34 -30 82q12 46 44 82l42 34q32 18 67 27t75 9h84q28 -2 53 -9t45 -27q12 -14 10 -36l-10 -20q-14 -12 -36 -10q-28 22 -66 23t-76 1q-36 2 -67 -9t-57 -31l-2 -4l-18 -20
l-8 -26l6 -12h4v-4q44 -22 95 -26t97 -18q12 -14 10 -36l-10 -20q-18 -14 -44 -12l-46 2q-32 -10 -61 -22t-59 -26v-4q-22 -14 -36 -38q-12 -24 -10 -54l22 -31l8 -8l16 -14q26 -10 55 -12t59 0q44 6 82 29.5t80 35.5l20 -10q12 -17 10 -39l-10 -20q-40 -28 -84 -47t-92 -27
h-80z" />
    <glyph glyph-name="zeta" unicode="&#x3b6;" 
d="M419 -132q-18 2 -32 14q-12 14 -10 36l10 20q52 14 109 13t101 33l2 6l-18 20q-82 2 -157 24t-137 74l-12 21l-6 4q-19 20 -25 46t-4 56q6 40 31 74h4l8 16h4q20 34 48 66l18 22l18 16l144 114v4q-44 12 -80 46q-24 33 -18 79q8 38 38 68l6 6l18 16l12 12q18 24 46 38
l24 2l20 -10q12 -14 10 -36l-10 -20q-18 -10 -30 -28l-6 -6l-6 -6l-6 -6l-12 -6v-4l-6 -6l-6 -6l-8 -6l-6 -28q28 -23 64 -30t74 -5q32 10 63 18.5t67 6.5l21 -10q12 -15 10 -37l-10 -20q-75 -18 -145 -44t-128 -82l-2 -4l-22 -20l-24 -18l-18 -16l-20 -16l-12 -6v-4
l-18 -22l-6 -6q-18 -20 -33 -41t-31 -43q-8 -20 -6 -44l16 -30h4l20 -18v-4q62 -47 138 -52t142 -33l8 -8l16 -20l8 -8q14 -18 10 -44q-4 -28 -22 -52l-18 -20q-48 -30 -105 -37t-117 -9z" />
    <glyph glyph-name="eta" unicode="&#x3b7;" 
d="M563 -140l-20 10q-10 14 -12 32q40 144 91 283.5t83 281.5l-8 32h-60q-36 -16 -68 -44l-2 -4l-16 -16l-16 -18l-12 -12l-14 -14q-24 -30 -42 -62q-42 -76 -63 -158.5t-57 -158.5q-14 -12 -36 -10l-20 10q-12 16 -10 38q30 117 74 228t70 227h-4l-30 -14v-4l-18 -16
l-20 -20h-4l-18 -34q-14 -12 -36 -10l-20 10q-12 16 -10 38q14 38 46 68l22 20h4v4q24 22 53 30t63 6l24 -12q28 -26 26 -66h6q40 44 90 62t112 10l36 -18l6 -6q23 -26 28 -60t3 -70q-43 -138 -92 -276.5t-93 -276.5q-14 -12 -36 -10z" />
    <glyph glyph-name="theta" unicode="&#x3b8;" 
d="M373 -26q-50 10 -88 44q-22 32 -30.5 69.5t-6.5 77.5q17 142 55 278t108 263l8 8l20 18q28 18 52 40t52 40q34 16 76 10q36 -4 62 -28v-4h4l18 -20l14 -16q14 -22 22 -47t14 -51v-125q-10 -130 -64 -248t-124 -225l-6 -6l-6 -6l-6 -6h-4v-4l-6 -6q-36 -24 -76 -41
t-88 -15zM473 82l20 18q28 29 46 61q28 58 59 114t47 118h-38q-60 -4 -121 -10t-121 -14q-16 -58 -26 -118t-12 -124q4 -33 20 -59q24 -16 52 -16q38 12 74 30zM665 471v4q4 32 10 64v107q-4 26 -16 48t-30 42l-22 8q-34 -16 -64 -36l-2 -4l-42 -22v-4l-6 -6h-4v-4l-6 -6
q-30 -22 -42 -55q-14 -38 -27 -76t-21 -78h18q62 8 126 13t128 5z" />
    <glyph glyph-name="iota" unicode="&#x3b9;" 
d="M495 0q-46 0 -80 32q-20 20 -24 46t-2 57q16 114 44 225t78 213q14 12 36 10l20 -10q12 -16 10 -38q-46 -106 -73 -216t-37 -225l4 -8h4v-4l24 -2l34 20q10 23 24 43q16 14 40 12l20 -10q12 -14 10 -37l-38 -62l-8 -8q-38 -32 -86 -38z" />
    <glyph glyph-name="kappa" unicode="&#x3ba;" 
d="M293 -2l-20 10q-10 16 -12 34q40 129 66 260t66 261q14 12 36 10l20 -10q12 -16 10 -38q-10 -52 -24 -102t-24 -102l24 -2q40 -4 74 9t60 43q18 32 36 65t42 63q28 22 57 40t68 16q16 -2 30 -12q12 -14 10 -36l-10 -20q-51 -8 -91 -36l-2 -4q-18 -16 -30 -38
q-22 -38 -40 -78l-14 -16l-8 -8l-14 -12l-16 -14l-12 -8v-6q26 -36 30 -82t10 -91l8 -2l42 27q12 24 32 38l26 2l20 -10q12 -14 10 -36l-32 -53q-28 -20 -57 -36t-65 -14q-22 4 -38 20q-30 44 -30 101.5t-30 101.5l-14 6q-34 -10 -72 -12l-24 4q-12 -56 -26 -112.5
t-36 -110.5q-14 -12 -36 -10z" />
    <glyph glyph-name="lambda" unicode="&#x3bb;" 
d="M303 -4q-16 2 -28 12q-10 14 -12 32q50 95 107 186t111 183l64 84l4 102q0 26 -12 49.5t-28 43.5l-4 2v4l-28 4l-34 -14l-12 -18q-14 -12 -36 -10l-20 10q-12 16 -10 38l24 38q26 20 57 28t67 6l38 -18l20 -20q36 -42 48 -94.5t8 -110.5l-4 -44q8 -90 18 -182t38 -176
l4 -2q8 -12 22 -19q26 -10 56 -10l27 2l20 -10q12 -14 10 -36l-10 -20q-28 -16 -67 -14q-32 2 -59 13t-51 29q-52 63 -58 145t-18 160h-4l-10 -14h-4q-48 -88 -102 -173.5t-102 -173.5q-14 -10 -30 -12z" />
    <glyph glyph-name="uni03BC" unicode="&#x3bc;" 
d="M212 -132l-20 10q-12 16 -10 38q36 172 63.5 348.5t135.5 324.5q16 12 38 10l20 -10q12 -14 10 -36q-32 -72 -51 -149t-21 -157q6 -36 15 -71t29 -66l20 -8l26 15l14 18q32 34 54 74q32 92 59 185t75 179q14 12 36 10l20 -10q14 -18 10 -44q-34 -80 -65 -160t-35 -170
q2 -28 10 -53l16 -50l10 -2v4q20 27 42 47l26 2l20 -10q13 -14 11 -37l-37 -56q-32 -32 -76 -34q-30 6 -54 30q-24 34 -30 77h-4l-12 -19l-16 -18l-6 -6q-16 -20 -40 -34q-30 -16 -66 -16q-32 6 -58 26q-22 26 -36 56.5t-20 64.5h-4q-14 -75 -24 -150t-39 -143
q-14 -12 -36 -10z" />
    <glyph glyph-name="nu" unicode="&#x3bd;" 
d="M315 -4q-16 2 -28 12q-12 16 -14 36q30 113 64 223t40 228h-4l-42 -20l-2 -4l-6 -4q0 -14 -10 -24q-14 -12 -36 -10l-20 10q-13 16 -11 38q4 24 21 42l8 8q28 22 59 33t69 9l26 -12l10 -10l16 -32v-84q-12 -80 -34 -158t-44 -154h4l92 102l32 38h4q52 76 105 151t89 159
q14 12 36 10l20 -10q15 -18 11 -42q-15 -40 -37 -78t-48 -74h-4l-28 -48h-4l-46 -74l-14 -16h-4l-28 -42l-38 -44l-14 -14l-12 -14l-14 -17l-14 -14l-14 -16l-12 -12l-20 -22l-22 -20q-36 -30 -82 -30z" />
    <glyph glyph-name="xi" unicode="&#x3be;" 
d="M381 -144q-34 6 -64 28q-14 16 -12 38l10 20q18 14 42 10q20 -16 47 -19t55 -1q32 2 60 11t52 29l2 4h4q14 18 20 40h-4v4l-10 6l-2 6q-20 12 -42 16h-92q-54 12 -107 25t-96 52q-14 18 -16 42q8 46 43 82l18 18l10 10q34 24 69 46t71 38l2 6l-34 24l-8 8l-28 36
q-10 20 -8 46q4 48 38 84l34 26l70 43v4q-16 14 -26 32l-4 28q4 36 28 62l14 8v4l16 14q22 16 46 28t54 8l20 -10q12 -14 10 -36l-10 -20q-38 -10 -70 -32l-2 -4l-24 -22q24 -16 50 -27t60 -5l58 2l34 -16q13 -16 11 -39l-11 -20q-42 -18 -96 -12l-54 4q-32 -6 -61 -19
t-57 -31l-2 -4l-32 -20l-6 -12h-4l-4 -32l24 -22v-4q58 -14 118 -22t118 -20q14 -16 12 -38l-10 -20q-36 -18 -82 -12l-18 4q-70 -12 -134 -44t-122 -74l-2 -4h-4v-4l-12 -12h-4v-4l-16 -24q36 -12 71 -23t73 -17h92q42 -6 76 -29v-4l12 -6l2 -6h4l28 -34q12 -22 8 -52
q-14 -36 -38 -68h-4l-4 -8l-50 -36q-24 -12 -50 -19t-54 -9h-96z" />
    <glyph glyph-name="omicron" unicode="&#x3bf;" 
d="M453 -4q-28 4 -55 11t-51 23q-38 30 -58 74q-10 29 -14 59t-2 62q4 68 23 132t65 116q24 28 54 48l60 40q22 12 49 14t55 0q40 0 72 -24q10 -18 16 -38l14 -10q22 -28 34 -60t16 -68v-80q-6 -46 -18 -88t-40 -78h-4v-4l-16 -19l-28 -26h-4l-8 -14q-36 -26 -74 -48
t-86 -22zM499 86l62 39l4 10l10 10q34 28 56 62q14 36 19 77t3 83q-4 44 -28 82l-6 2v4h-4l-6 6v4l-22 16l-8 8l-4 6l-46 2q-24 -8 -45 -24t-43 -30l-36 -44h-4q-30 -50 -41 -107t-9 -119q6 -36 26 -65h4v-4l12 -6l14 -12q32 -10 66 -12z" />
    <glyph glyph-name="pi" unicode="&#x3c0;" 
d="M252 -32l-20 10q-12 16 -10 38l10 20l45 26l4 6l4 6l8 8h4l12 18q20 21 36 44t30 47q16 36 24 76t14 80v176h-10q-28 -6 -54 -20t-48 -36l-2 -4q-14 -12 -36 -10l-21 10q-12 14 -10 36q8 22 29 38q46 40 102 55t120 11q62 -8 120 -30t126 -12q30 0 58.5 7t56.5 11l20 -10
q12 -14 10 -36l-10 -20q-38 -22 -85.5 -26t-95.5 -6q-18 -76 -38 -153t-22 -159q8 -36 28 -67l4 -2v-4h4q8 -12 22 -16q32 -6 68 -4l69 10l20 -10q12 -14 10 -36l-10 -20q-34 -16 -71.5 -20t-77.5 -2q-28 4 -53 17t-45 35q-22 32 -35 68.5t-11 78.5q4 76 22 147t36 143
q-30 6 -55 20t-57 16v-184q-8 -74 -31 -143t-71 -128l-12 -14l-6 -6l-8 -8l-12 -14h-4v-4h-4l-2 -6h-4v-4l-6 -6q-34 -30 -79 -38z" />
    <glyph glyph-name="rho" unicode="&#x3c1;" 
d="M267 -122l-21 10q-12 16 -12 38q20 152 69.5 298.5t129.5 278.5q16 20 37 34t43 26q32 10 70 6q28 -2 53 -12t47 -26v-4h4l14 -16l12 -14q30 -38 38 -84t4 -98q-6 -50 -20 -97t-42 -87l-14 -14h-4l-2 -7h-4v-4l-28 -24l-14 -16h-4l-6 -10q-32 -22 -70 -34t-78 -16
q-46 4 -82 30l-44 46q-16 -46 -21 -97t-19 -97q-14 -12 -36 -10zM559 113l6 2v4l6 6h4l6 12l18 12v4l24 22h4l4 8l6 2q22 44 33 94t7 104q-4 46 -38 80h-4l-16 16q-32 16 -74 12q-28 -14 -49 -37t-37 -49q-24 -52 -42 -106t-38 -108q10 -32 30 -60l4 -2l20 -25l26 -18h28
q38 8 72 27z" />
    <glyph glyph-name="sigma1" unicode="&#x3c2;" horiz-adv-x="512" 
 />
    <glyph glyph-name="sigma" unicode="&#x3c3;" 
d="M385 -6q-28 6 -55 15t-49 29q-24 28 -35.5 62.5t-19.5 68.5v94q4 42 17.5 82t35.5 76h4q10 20 28 38q26 28 55 51t59 45q34 16 70 25t78 5q28 -16 63 -17t69 -3q38 6 74.5 17t72.5 19l20 -10q12 -16 10 -38l-10 -20q-42 -20 -89.5 -31t-95.5 -17l-36 4v-6q12 -30 26 -58
t16 -62v-84q-10 -46 -30 -87t-48 -79l-14 -17l-22 -22l-20 -22l-24 -18q-32 -22 -70 -32t-80 -8zM473 88q30 22 57 51.5t49 59.5q20 34 31 73t5 83q-6 36 -23 66t-23 66h-4l-14 20h-30q-46 -10 -84 -38v-4l-32 -26l-12 -12l-8 -8l-14 -14q-22 -20 -40 -48q-18 -40 -23 -86
t-3 -94l22 -73h4q6 -12 18 -18q34 -18 76 -14z" />
    <glyph glyph-name="tau" unicode="&#x3c4;" 
d="M449 -16q-32 6 -56 28q-30 36 -24 86q12 103 47 199t61 194q-32 14 -72 12q-46 -22 -92 -38l-20 10q-12 14 -10 36l10 20q32 28 71 41t85 9q42 -18 91 -22t99 -6q28 4 53 14t53 16l20 -10q13 -14 11 -36l-15 -24q-32 -22 -71 -29t-79 -9l-56 4q-26 -102 -62 -201
t-46 -206l4 -8l16 -2q44 8 78 40l26 31q4 22 16 42q14 12 36 10l20 -10q14 -18 10 -44q-8 -31 -26 -55h-4l-8 -16h-4v-4h-4l-2 -6l-8 -8l-20 -16q-28 -22 -60 -32t-68 -10z" />
    <glyph glyph-name="upsilon" unicode="&#x3c5;" 
d="M487 36q-28 4 -54 15t-48 29l-2 6l-6 4q-48 53 -58 122t-16 139v194q2 16 12 28q14 12 36 10l20 -10l10 -20v-194q0 -50 9 -97t23 -93l4 -2l16 -20v-4q24 -22 56 -26t66 -2l40 24l2 4q40 26 62 66q14 38 24 76t6 84q-2 32 -17 59t-37 51l-36 24q-14 16 -12 38l10 20
q16 12 38 10l48 -30v-4l8 -4l2 -6h4l4 -10l6 -2q40 -44 52.5 -98t7.5 -116q-10 -46 -24 -89t-40 -81h-4v-4l-8 -8l-10 -11h-4v-4l-14 -12l-12 -6v-4l-12 -6v-4q-30 -28 -70 -34t-82 -2z" />
    <glyph glyph-name="phi" unicode="&#x3c6;" 
d="M401 -124l-20 10q-10 16 -12 34l24 100q-28 10 -55 24t-51 36v4l-20 12l-2 6h-4l-9 15h-4q-20 26 -28 57t-6 67q10 62 30.5 119t66.5 103q52 38 105 73t117 39q14 57 30 111t42 106q14 12 36 10l20 -10q12 -16 10 -38q-20 -48 -35 -97.5t-25 -101.5q48 -6 86 -36v-4h4v-4
l10 -4l28 -30v-4h4q31 -40 47 -87t12 -101q-2 -42 -19.5 -79t-45.5 -69h-4l-4 -10h-4l-4 -10h-4v-4l-10 -11l-6 -6l-22 -18l-12 -6v-4q-42 -30 -92 -43t-104 -17q-8 -30 -15 -62t-19 -60q-14 -12 -36 -10zM413 100v4q28 95 50 193t48 194h-8q-34 -14 -66 -36t-64 -40v-4
q-16 -10 -24 -26h-4l-4 -10l-18 -26q-12 -32 -21 -66t-9 -72q2 -28 20 -50l6 -2l2 -6l34 -22l8 -8v-4l48 -21zM595 117q36 22 66 54h4q32 34 47 74t11 88q-6 26 -18 51t-28 47h-4l-28 26v4q-24 14 -52 18q-30 -96 -52 -194t-50 -197h8q24 6 49 11t47 18z" />
    <glyph glyph-name="chi" unicode="&#x3c7;" 
d="M287 -140l-20 10q-13 14 -15 34q33 70 79 134t84 133h4l32 46l38 50q-22 54 -42 108t-44 106l-10 2q-28 -12 -58 -16l-20 10q-12 14 -10 36l10 20q20 20 47 25t57 3l30 -14l12 -10q28 -46 46 -95t34 -99h4l48 68h4l12 20l24 28l6 6l58 66l54 52l25 2l20 -10
q12 -14 10 -36l-10 -20l-26 -28l-13 -14l-18 -22l-24 -26l-16 -18l-14 -16l-12 -14h-4v-4q-24 -30 -47 -63t-45 -65v-16q14 -64 29 -127.5t43 -121.5q16 -18 42 -16q22 22 54 18l20 -10q13 -14 11 -36l-11 -20q-38 -30 -86 -32q-44 4 -78 32l-2 6l-10 6q-34 50 -48 109
t-28 120h-4l-18 -24l-16 -20h-4q-20 -39 -44 -77t-50 -74h-4q-12 -24 -27 -47t-23 -49q-14 -12 -36 -10z" />
    <glyph glyph-name="psi" unicode="&#x3c8;" 
d="M417 -130q-16 2 -28 12q-10 16 -12 34l16 98q-26 4 -48 16t-42 32q-18 22 -26 50.5t-12 56.5v100q6 56 27 106t39 102l-8 20l-12 4l-24 -18v-4l-16 -18h-4v-4q-17 -8 -25 -26l-12 -26q-14 -12 -36 -10l-20 10q-12 16 -10 38q8 40 42 68l8 8h4l8 14l24 18v4q35 32 87 24
l42 -24v-4h4q16 -22 22 -50t4 -58l-40 -88t-26 -94v-84q2 -36 20 -64q20 -19 48 -23q42 177 91 350t107 344q14 12 36 10l20 -10q12 -16 10 -38q-50 -161 -96 -323t-84 -327h4q42 10 78 37l24 28q34 32 56 70q44 74 59 158t31 168q16 14 39 12l20 -10q14 -16 10 -40
q-6 -106 -38.5 -207t-98.5 -187l-18 -19l-6 -6l-22 -24l-8 -8q-34 -26 -72 -38t-80 -18q-8 -32 -11 -66t-15 -64q-14 -10 -30 -12z" />
    <glyph glyph-name="omega" unicode="&#x3c9;" 
d="M311 10q-26 2 -49.5 13t-41.5 31q-28 34 -37 76.5t-5 88.5q12 88 48.5 168t78.5 158q14 12 36 10l20 -10q12 -16 10 -38q-40 -80 -78.5 -165t-35.5 -179q4 -32 24 -59q22 -18 52 -16q34 12 66 35q52 70 65 154t45 162q14 12 36 10l20 -10q14 -16 10 -40q-20 -48 -22 -103
t-2 -111l18 -28l10 -6l10 -10l10 -10l6 -6v-4h4v-4h4l8 -9l38 -12q30 6 52 33q48 46 72.5 102t22.5 122q-2 46 -18 86t-37 80q2 16 12 28q15 12 37 10l20 -10q40 -54 53 -117t11 -131q-8 -46 -25 -89t-41 -83l-6 -6l-45 -49l-18 -18q-22 -16 -48 -26t-56 -10q-26 6 -50 16
t-44 30l-56 55l-18 -29l-24 -26l-16 -14q-30 -16 -60 -29t-66 -11z" />
    <glyph glyph-name="iotadieresis" unicode="&#x3ca;" horiz-adv-x="512" 
 />
    <glyph glyph-name="upsilondieresis" unicode="&#x3cb;" horiz-adv-x="512" 
 />
    <glyph glyph-name="omicrontonos" unicode="&#x3cc;" horiz-adv-x="512" 
 />
    <glyph glyph-name="upsilontonos" unicode="&#x3cd;" horiz-adv-x="512" 
 />
    <glyph glyph-name="omegatonos" unicode="&#x3ce;" horiz-adv-x="512" 
 />
    <glyph glyph-name="uni0401" unicode="&#x401;" 
d="M311 -14l-20 10q-12 16 -12 36l2 2v99l-4 24v110l4 16v88l-4 52q4 34 7 70t3 72v83l-2 36l14 26q22 12 50 11t54 5h86l2 -2h122l2 -2h122q20 0 35 -12q14 -16 12 -38l-10 -20q-19 -14 -43 -10l-2 2h-122l-2 2h-122l-74 2l-44 -4v-89q-2 -32 -3 -65t-5 -65h10l2 2h312
l20 -10q12 -14 10 -36l-10 -20q-14 -10 -30 -12h-296l-16 -2l-4 -88v-94q6 -44 4 -93h38l120 8h182q52 -2 99 -18q12 -14 10 -36l-10 -20q-18 -14 -45 -12l-62 8h-168q-52 -6 -107 -6t-105 -10zM645 766q-28 2 -50 24q-14 16 -14 38q4 24 18 42q34 16 78 10l6 -4l28 -36
l2 -32l-12 -24h-4l-4 -6q-20 -14 -48 -12zM387 772q-26 4 -48 22q-12 16 -14 36q4 18 16 34q26 18 60 16l40 -20q20 -20 16 -50l-10 -20q-26 -20 -60 -18z" />
    <glyph glyph-name="uni0402" unicode="&#x402;" horiz-adv-x="512" 
 />
    <glyph glyph-name="uni0403" unicode="&#x403;" horiz-adv-x="512" 
 />
    <glyph glyph-name="uni0404" unicode="&#x404;" horiz-adv-x="512" 
 />
    <glyph glyph-name="uni0405" unicode="&#x405;" horiz-adv-x="512" 
 />
    <glyph glyph-name="uni0406" unicode="&#x406;" horiz-adv-x="512" 
 />
    <glyph glyph-name="uni0407" unicode="&#x407;" horiz-adv-x="512" 
 />
    <glyph glyph-name="uni0408" unicode="&#x408;" horiz-adv-x="512" 
 />
    <glyph glyph-name="uni0409" unicode="&#x409;" horiz-adv-x="512" 
 />
    <glyph glyph-name="uni040A" unicode="&#x40a;" horiz-adv-x="512" 
 />
    <glyph glyph-name="uni040B" unicode="&#x40b;" horiz-adv-x="512" 
 />
    <glyph glyph-name="uni040C" unicode="&#x40c;" horiz-adv-x="512" 
 />
    <glyph glyph-name="uni040E" unicode="&#x40e;" horiz-adv-x="512" 
 />
    <glyph glyph-name="uni040F" unicode="&#x40f;" horiz-adv-x="512" 
 />
    <glyph glyph-name="uni0410" unicode="&#x410;" 
d="M230 -28l-20 10q-12 14 -10 36q71 195 130 393t151 383q20 14 48 12l20 -10q66 -203 155.5 -395t173.5 -387l-10 -20q-14 -12 -36 -10l-20 10q-49 66 -78 142.5t-61 150.5h-64q-62 -6 -125 -11t-121 -21q-22 -66 -46 -132.5t-44 -134.5q-16 -18 -43 -16zM635 367
q-40 70 -68 148t-52 155h-4q-42 -77 -66 -161t-50 -166h6q58 10 116 14t118 10z" />
    <glyph glyph-name="uni0411" unicode="&#x411;" 
d="M383 -6l-56 6l-26 -4l-20 10q-16 48 -22.5 101.5t-8.5 107.5v90l9 116v184l6 107l-6 56l10 20q16 12 38 10l32 -8h110l44 -4h100l130 10l20 -10q14 -16 12 -40l-10 -20q-14 -12 -36 -10l-14 2q-46 -8 -96 -10h-114l-44 4h-98l-6 -115v-144h36q44 10 92 12h136
q48 -4 94 -14t85 -38l16 -16l8 -8l12 -12q24 -30 31 -66t7 -76q-4 -34 -16 -66t-34 -59h-4l-6 -12l-10 -10h-4v-4l-17 -8v-4q-88 -40 -184 -58t-196 -20zM709 131q32 24 52 56q15 34 15 74q-2 42 -29 72l-24 24q-30 14 -63 20t-67 10h-122q-34 -2 -67 -8t-69 -4
q-2 -38 -5 -75t-1 -77q4 -36 5 -74.5t9 -72.5l112 -4l128 24t126 35z" />
    <glyph glyph-name="uni0412" unicode="&#x412;" 
d="M321 -4q-24 4 -46 16q-12 36 -15 77.5t-3 83.5l2 34l-5 30v152q7 70 13 141t8 144l-4 86q2 16 12 28q14 12 36 10l14 -2q34 16 70 24h82q70 -2 134 -21t120 -59v-4h4l8 -8l8 -8l6 -6q23 -32 29 -70.5t4 -80.5q-4 -28 -15 -52t-30 -46l-8 -8h-4v-4l-42 -32l26 -14l6 -6
l6 -6l10 -10v-4l6 -4l19 -22q22 -40 40 -82t12 -94q-8 -46 -38 -85l-10 -12l-17 -16h-4l-4 -6q-60 -36 -128 -48t-142 -8l-2 2h-84zM683 113l24 14l2 4l26 30q14 28 10 62q-8 24 -19 48t-25 48h-4l-22 24v4q-34 14 -71 23t-79 5q-46 -12 -94 -19t-98 -9v-102l4 -78l-2 -34
l6 -55h8l38 6h100l64 -2q36 2 69 10t63 21zM641 485l48 28l22 30q12 32 8 72q-2 27 -16 49l-28 26q-58 36 -126 45t-140 7l-58 -22v-36l2 -77q-6 -42 -9 -86t-5 -88h8q74 14 149 19t145 33z" />
    <glyph glyph-name="uni0413" unicode="&#x413;" 
d="M315 0l-20 10q-20 38 -14 88l8 99v132l2 2v102l2 2v108l2 2v135q-2 42 -12 80l16 30q14 12 36 10l22 -6q24 8 52 10h174q38 6 78 7t82 1q41 2 73 -16q12 -14 10 -36l-10 -20q-18 -14 -44 -10l-91 4l-92 -8h-174l-44 -8v-26l2 -2v-153l-2 -2v-108l-2 -2v-102l-2 -2v-132
q-6 -32 -6 -66.5t-2 -68.5l2 -24l-10 -20q-14 -12 -36 -10z" />
    <glyph glyph-name="uni0414" unicode="&#x414;" 
d="M174 -144l-10 6q-10 16 -12 34l2 20q-4 38 -8 77t-4 79l10 20q14 12 36 10l20 -6l6 10h4q63 93 89 200t40 217v111q-2 36 -6 73t-10 71l10 20q14 12 36 10l22 -12h116q52 6 106 9t110 3q28 -8 55 -22q12 -22 12 -50v-54l-2 -2v-97q-4 -58 -7 -115t-3 -117l2 -2v-182
l-2 -34l8 -39l44 -2l18 2l20 -10q24 -42 16 -98q-6 -28 -4 -59t-10 -57q-14 -12 -36 -10l-20 10q-18 40 -12 92l4 52l-89 8h-130l-44 4h-140q-46 -4 -94 -5t-95 -5v-6l10 -122l-12 -26q-20 -10 -46 -6zM711 100v13q-6 28 -4 60l2 2v166l-2 2v80l10 168v97l2 32l-2 10h-42
l-154 -12h-102v-18l6 -58v-127q-14 -108 -39 -214t-79 -203h4l94 6h154l44 -4h108z" />
    <glyph glyph-name="uni0415" unicode="&#x415;" 
d="M321 4l-20 10l-10 10q-12 14 -10 36l8 159l-4 22v80q4 38 10 74t10 74v130l-4 65l2 54l-6 4q-12 14 -10 36l10 20q26 12 58 11t62 3h80q56 4 112 7t112 3q16 -2 28 -12q12 -14 10 -36l-10 -20q-16 -12 -36 -12l-30 2l-180 -10h-80l-42 -4l-2 -64l4 -39v-140l6 -2h92
q48 2 96 9t98 5l20 -10q12 -14 10 -36l-10 -20q-50 -12 -103 -17t-105 -9h-106l-8 2q-4 -34 -8 -69t-2 -71l4 -74l-6 -87h14l38 4h98l56 4h88l30 -4h87q16 -2 28 -12q14 -16 12 -38l-10 -20q-16 -12 -39 -10l-2 2h-84q-24 4 -51 4h-53l-56 -4h-98z" />
    <glyph glyph-name="uni0416" unicode="&#x416;" 
d="M68 -10l-20 10q-12 14 -10 36q38 77 79 153t99 142q22 24 40.5 51t38.5 53v6q-45 46 -60 103t-45 110l-34 26v4l-14 8v4l-26 4q-22 -10 -48 -10l-20 10q-12 14 -10 36l10 20q40 26 94 22q28 -4 50 -22l2 -6l38 -26l12 -12l15 -14q34 -50 45 -108.5t55 -102.5
q24 -16 51 -21t57 -7l2 106l-4 42v93q4 26 2 55t12 51q14 12 36 10l20 -10l10 -20v-92l-2 -79l4 -42v-88l-2 -24h16q36 8 68 26t64 34q24 22 38 48l12 22h4q20 39 37.5 80t47.5 75q24 20 55 27t65 5l20 -10q12 -14 10 -36l-10 -20q-42 -12 -86 -22q-30 -50 -54 -103.5
t-62 -101.5l-15 -14h-4v-4l-8 -8h-4v-4l-14 -8v-6q22 -38 42.5 -76t48.5 -74l4 -2l12 -14v-4h4q8 -16 24 -24v-4h4q16 -24 28 -51t30 -51h4v-4h4l12 -24l6 -5l14 -12v-4h4v-4l8 -4q14 -16 12 -38l-10 -20q-16 -12 -38 -10l-26 16q-22 22 -39 46t-37 47l-32 68l-18 12
q-21 22 -40 47t-35 51l-58 106h-4q-24 -12 -50 -18t-54 -10v-10l4 -38v-130l-2 -2v-84l8 -97l-10 -20q-14 -12 -36 -10l-20 10q-14 24 -16 52l-4 56v101l2 2v114l-4 56q-26 0 -51 5t-51 9l-44 -60h-4q-16 -28 -36 -54l-12 -12l-17 -20h-4l-6 -12q-18 -20 -31 -44t-29 -48
q-18 -35 -35 -71t-39 -70q-16 -16 -40 -14z" />
    <glyph glyph-name="uni0417" unicode="&#x417;" 
d="M461 0q-54 8 -103 26t-93 50l-2 6l-6 2l-19 20q-26 33 -30 73l10 20q14 12 36 10l21 -10l36 -52l18 -18q36 -23 75 -34t81 -15q54 6 103 20.5t93 44.5q24 30 30 68q0 30 -6 58t-22 52h-4l-14 12l-68 36t-76 18l-40 -2q-16 2 -28 12q-12 14 -10 36l10 20q62 16 122 33
t112 55q24 24 24 58q2 49 -38 81q-28 18 -58 30t-66 8q-84 2 -156 -34t-145 -67l-20 11q-12 14 -10 36l10 20q83 58 176 88t195 24q36 -6 67 -22t61 -36l24 -24q27 -32 34 -71.5t5 -81.5l-27 -52h-4l-6 -12h-4l-6 -12l-14 -14q-36 -26 -76 -38v-6l74 -40l18 -18
q29 -38 38 -84t7 -96q-12 -44 -37 -85h-4l-4 -10l-6 -6l-10 -10h-4v-4q-58 -38 -125 -55t-139 -19z" />
    <glyph glyph-name="uni0418" unicode="&#x418;" 
d="M263 -8l-21 10q-14 22 -13 50t1 54l4 61v208l2 56l-4 46v110q-8 47 -6 97q4 30 4 62t16 58q15 12 37 10l20 -10q12 -16 10 -38q-4 -32 -6 -65t-2 -67l6 -39v-110l4 -116l-2 -2v-138h4l70 98h4q14 26 33 50t39 48l18 12q46 64 90 128.5t90 128.5l24 22l20 18q0 44 16 82
q14 12 36 10l21 -10q16 -30 10 -68q-4 -30 -7 -61t-1 -64l2 -78l-4 -122l2 -2v-118l2 -2v-156l-4 -30q8 -37 6 -79q-2 -18 -12 -32q-15 -12 -37 -10l-20 10q-12 18 -12 40l2 38l-6 47l4 24v140l-2 2v118l-2 2v86l4 112h-4l-20 -32h-4l-54 -84l-6 -2l-20 -34h-4l-38 -58
l-16 -20l-10 -10l-12 -6l-4 -10h-4l-12 -20l-10 -12h-4l-20 -34h-4l-26 -40h-4l-8 -16h-4q-10 -26 -28 -48l-38 -52l-6 -6l-34 -33q6 -52 -10 -94q-14 -12 -36 -10z" />
    <glyph glyph-name="uni0419" unicode="&#x419;" 
d="M263 -4l-21 10q-10 12 -12 28v113l6 28v196l-2 2v126l-4 54q4 26 7 54.5t1 56.5l-4 46l10 20q15 12 37 10l20 -10q14 -28 15 -63t1 -70l-8 -68l4 -22v-126l2 -2v-160h4q44 48 81 98t73 102h4l18 26l6 2l2 6l98 104l12 6l4 6l58 42l4 6l34 33h4q-6 54 12 96q14 12 36 10
l21 -10l10 -20v-121l2 -2v-94l-4 -42v-84l-4 -112l6 -110v-101q2 -30 -12 -54q-14 -12 -37 -10l-20 10q-18 26 -12 62l2 2v81l-6 110v82l4 48v84l4 70h-4l-22 -18l-38 -26v-4l-6 -6h-4l-4 -10q-22 -16 -40 -38t-36 -42l-10 -10h-4v-4l-22 -26h-4l-18 -32h-4l-20 -34h-4
l-20 -32l-22 -30l-14 -16h-4l-10 -18h-4l-4 -10l-12 -6l-4 -10l-22 -22q-20 -18 -48 -16l-6 2v-111l-10 -20q-14 -12 -36 -10zM501 730q-42 4 -79 21t-71 41v4h-4q-28 26 -30 62l10 20l52 2l4 -2l14 -16q18 -22 44 -34q36 -18 78 -20q28 8 56 18t52 30l8 6l6 10q22 12 50 8
l10 -6q12 -14 10 -36q-8 -22 -26 -38q-40 -32 -86 -50t-98 -20z" />
    <glyph glyph-name="uni041A" unicode="&#x41a;" 
d="M283 -4l-20 10q-21 34 -19 76q4 67 7 134t10 135l-4 50v88l4 44v82l-2 63q6 32 6 65t14 61q14 12 36 10l20 -10q16 -28 10 -64q-4 -28 -7 -56t-1 -58l2 -3v-98l-4 -96h36q42 6 79 20t73 34l2 4l22 22q26 54 45 112.5t63 106.5q30 26 61 49t76 15l20 -10q12 -14 10 -36
l-10 -20q-30 -12 -61 -20l-2 -4l-20 -12v-4l-14 -12l-12 -14q-20 -24 -34 -53q-14 -42 -29 -83t-41 -77l-14 -14l-16 -14h-4v-4l2 -6l6 -2l10 -18h4l4 -10h4l10 -12l8 -14h4l22 -28l16 -28l4 -2v-4h4l12 -20h4l28 -34l14 -24h4q30 -40 59.5 -81.5t41.5 -89.5l-10 -20
q-14 -12 -36 -10l-21 10q-18 24 -32 49t-30 50h-4l-8 16h-4l-20 32h-4q-26 34 -52 66t-50 66l-24 28l-38 50h-8q-34 -14 -70 -22t-76 -6q-4 -72 -8 -143t-8 -144l6 -38l-10 -20q-14 -12 -36 -10z" />
    <glyph glyph-name="uni041B" unicode="&#x41b;" 
d="M751 -10q-16 2 -28 12q-18 32 -12 72l4 30v83l4 98l-6 124l8 84v96l6 137l-2 8h-50l-2 -2h-118l-158 -6v-4l8 -62v-89l-2 -2v-154q-6 -86 -25 -168t-65 -157h-4l-6 -10l-6 -2v-4q-30 -30 -67 -50q-34 -12 -72 -16l-20 10q-12 14 -10 36l10 20q24 14 49 20t45 31l2 4l12 6
v4h4v4q13 14 21 30q24 58 37 121t17 129v154l2 75l-14 124l10 20q14 12 36 10l32 -4l158 8h118l2 2h82l19 2l20 -10q14 -30 15 -66t1 -72l-6 -85v-96q-6 -28 -6 -57t-2 -57l6 -130l-4 -62v-83l-4 -52l2 -22l-10 -20q-15 -10 -31 -12z" />
    <glyph glyph-name="uni041C" unicode="&#x41c;" 
d="M850 -18l-20 10q-20 36 -19 81.5t-1 89.5l2 2v116l-4 118l2 2v128l-4 88h-4q-85 -146 -150 -301t-131 -310q-14 -12 -36 -10l-20 10q-44 155 -99 304t-126 293h-4v-186l2 -74l-4 -16v-82l-4 -26v-127l2 -66l-10 -20q-14 -12 -36 -10l-20 10q-18 34 -14 78v139l4 28v82
q6 36 4 74l-2 2v202l-2 71l2 2v94q2 16 12 28q22 16 50 16l20 -10q57 -166 136 -322.5t121 -328.5h4q64 170 145 331.5t174 317.5q14 12 36 10l20 -10q14 -18 10 -42l-4 -16v-124l6 -91v-144l-2 -64l4 -40v-132l-2 -36q2 -29 3 -56t5 -53l-10 -20q-14 -12 -36 -10z" />
    <glyph glyph-name="uni041D" unicode="&#x41d;" 
d="M763 -16l-20 10q-18 34 -12 76l6 107l-6 98l4 118h-130l-104 -8h-156l-30 -4v-24l2 -2v-96l-8 -98v-139l-10 -20q-14 -12 -36 -10l-21 10q-10 12 -12 28v139l8 98v80l-2 2v172q-2 38 -8 75.5t-6 77.5q8 32 10 65t14 63q15 12 37 10l20 -10q16 -28 10 -64q-4 -24 -8 -49
t-4 -51q8 -43 12 -88t2 -91h8l16 4h156l104 8h138l2 44v225l-2 56q2 16 12 28q14 12 37 10l20 -10q16 -34 12 -76v-241l-4 -46v-134l-4 -88q4 -28 5 -56t1 -58q-6 -33 -5 -67t-11 -64q-14 -12 -37 -10z" />
    <glyph glyph-name="uni041E" unicode="&#x41e;" 
d="M479 -8q-50 4 -94 23t-84 47q-49 59 -77 126t-42 139v102q6 68 29 130t64 119h4l8 12l10 10h4l10 14l6 2l4 6q36 34 79 50t93 18q56 -10 110 -26t100 -48l26 -30v-4l6 -4q51 -65 66 -142t15 -159q-14 -68 -36.5 -134t-58.5 -126h-4l-4 -11h-4v-4l-22 -24h-4v-4l-16 -16
h-4v-4l-52 -38q-30 -12 -63 -20t-69 -4zM583 92q32 25 60 57t44 68q16 52 35 102t15 110q-6 60 -21 117t-57 104h-4l-24 20q-34 10 -66 23t-72 9l-18 -2l-22 8q-44 -12 -80 -42l-4 -6l-8 -4l-6 -12l-8 -8l-6 -6q-18 -19 -30 -41q-20 -38 -33 -80t-17 -88v-86q12 -48 28 -95
t42 -89h4l30 -38q36 -19 75 -32t85 -11z" />
    <glyph glyph-name="uni041F" unicode="&#x41f;" 
d="M254 -2l-20 10q-14 18 -16 42v97l6 48v126q-4 24 -4 49v51l8 207l-2 66q-4 54 16 98q21 16 49 14q20 -10 44 -14h130q32 -6 68 -4l84 8h136q17 -2 29 -12q12 -16 10 -38q-8 -38 -10 -77t-4 -80q6 -24 6 -51v-53l-2 -2v-110q-6 -64 -9 -127t-8 -127l9 -89l-11 -20
q-14 -12 -36 -10l-20 10q-16 34 -18 72.5t-2 78.5q6 54 9 110t7 110v110l2 58q-8 34 -6 70l8 99h-84q-36 -4 -73 -6t-75 -2l-18 4h-132l-18 4l-2 -80l2 -2v-83q-4 -50 -6 -100t-2 -102l4 -22v-142q-4 -30 -5 -62.5t-1 -64.5l4 -32l-10 -20q-14 -12 -37 -10z" />
    <glyph glyph-name="uni0420" unicode="&#x420;" 
d="M285 2l-20 10q-11 12 -13 28v91l14 108t5 110l-2 2v114l-8 136v109l4 34l-2 32l10 20q14 12 36 10l20 -10v-4h14l58 8h94q58 -10 117 -17t107 -43l2 -6l6 -4l20 -22q20 -30 26.5 -65.5t4.5 -75.5q-6 -40 -21.5 -75t-39.5 -67h-4v-4h-4v-4q-80 -52 -173 -62t-187 -16
q2 -56 -5 -109t-13 -107v-91l-10 -20q-14 -12 -36 -10zM625 459l32 16q22 32 34 69t8 79q-6 29 -26 51l-4 2l-16 14q-58 18 -119 25t-125 7q-32 -6 -68 -8l-2 -12v-91l8 -194h22l132 12t124 30z" />
    <glyph glyph-name="uni0421" unicode="&#x421;" 
d="M463 20q-42 6 -79 21t-71 35v4h-4l-6 6v4h-4v4l-10 6q-43 53 -69 113t-38 124v116q4 66 23 125.5t58 111.5h4v4l8 8h4l6 10q54 42 115 70t133 24q50 -10 96 -28t88 -48l32 -28v-4h4v-4l12 -8q21 -28 37 -58.5t22 -64.5l-10 -20q-14 -12 -36 -10l-21 10q-16 20 -26 44
t-24 47h-4v4l-6 4q-44 42 -97 63t-115 23q-36 -10 -70 -27t-66 -39l-2 -4l-10 -4l-4 -8q-22 -23 -36 -49q-14 -36 -25 -73t-11 -79v-100q10 -48 29 -92t45 -84l4 -2l10 -12v-4l10 -6l2 -6q30 -16 62 -28.5t68 -12.5q42 2 81 13.5t71 37.5v4l34 32h4l4 6l6 8h4l12 18h4
q20 30 34 64q14 12 37 10l20 -10q14 -16 10 -40q-6 -26 -21 -47t-32 -41l-24 -24h-4v-4l-8 -8l-10 -11l-10 -4v-4h-4v-4h-4v-4l-10 -4v-4l-10 -4v-4q-46 -32 -100 -43t-112 -11z" />
    <glyph glyph-name="uni0422" unicode="&#x422;" 
d="M507 4l-20 10q-14 26 -17 58t-1 65l4 18v90q-6 34 -4 70l4 18v96l8 86v187l-2 6q-42 6 -88 4l-74 -4q-24 6 -53.5 4t-51.5 10q-12 14 -10 36l10 20q40 18 93 12l50 -4q26 4 53 4h55l26 -4l64 8h96l50 -6h89q20 0 34 -12q12 -14 10 -36l-10 -20q-18 -12 -40 -12l-2 2h-89
l-50 6h-82v-209l-8 -86v-96l-4 -58l4 -14v-106l-4 -57q8 -26 6 -56l-10 -20q-14 -12 -36 -10z" />
    <glyph glyph-name="uni0423" unicode="&#x423;" 
d="M259 4l-21 10q-14 16 -12 40l10 20q51 12 100 26.5t87 58.5q30 36 48 76t30 82q-36 66 -73 132t-81 128h-4q-32 49 -67.5 98t-51.5 105l10 20q14 12 37 10l20 -10l76 -120l4 -2q46 -63 87 -127t77 -132h4q26 66 56 130t64 129h4l74 114q14 12 37 10l20 -10q12 -16 10 -38
q-109 -147 -170 -318t-149 -328h-4v-4l-6 -6l-6 -6l-36 -30q-38 -30 -83 -40t-91 -18z" />
    <glyph glyph-name="uni0424" unicode="&#x424;" 
d="M491 -4l-20 10q-10 12 -12 28v105q-60 12 -119 27t-106 57l-2 6l-12 8q-24 36 -36 78t-12 88q8 64 34 121t73 106q42 30 88 51t98 29v16l-4 46q2 16 12 28q14 12 36 10l20 -10q14 -40 14 -84q64 -14 128 -30t115 -65l14 -16v-4l6 -4q30 -42 46 -91t16 -103
q-8 -36 -18 -72t-34 -66h-4l-12 -16q-26 -26 -57 -50h-4v-4q-44 -32 -97 -41t-105 -17v-111l-10 -20q-14 -12 -36 -10zM469 217v90l2 2v206l-2 2v115h-4q-34 -9 -66 -25l-64 -32v-4h-4v-4h-4v-4h-4v-4l-48 -70q-10 -26 -16.5 -54t-8.5 -58q7 -48 33 -90l8 -6v-4l10 -4
l20 -18q36 -12 72 -23t76 -15zM679 249q36 24 64 58h4v4h4v4h4q19 26 27 57t8 65q-10 34 -22.5 68t-38.5 62q-38 30 -85 44.5t-97 16.5v-103l2 -2v-222l-2 -2v-82h10q30 8 62 12t60 20z" />
    <glyph glyph-name="uni0425" unicode="&#x425;" 
d="M259 -12l-21 10q-12 16 -10 38q49 101 106 198t105 197l-28 46h-4q-14 22 -28 45t-22 47h-4l-22 36h-4q-28 41 -52.5 83t-36.5 88l10 20q15 12 37 10l20 -10q22 -36 41 -74t45 -72h4l18 -31h4q16 -30 32 -59t34 -57h6q30 54 58 108.5t68 104.5q18 20 31 44t29 48l6 6
q16 12 38 10l20 -10q12 -16 10 -38l-10 -20l-16 -20l-42 -68h-4v-4l-20 -26l-30 -43q-22 -42 -45 -85t-47 -85l10 -16h4l4 -10h4l88 -134h4l16 -26h4l6 -6v-4h4l4 -10h4l20 -22l4 -10h4l48 -70l9 -17l6 -2v-4l6 -2l2 -6h4v-4h4q12 -16 10 -38l-10 -20q-14 -12 -37 -10
q-20 6 -36 26q-24 28 -43 58.5t-39 58.5l-6 2l-44 52v4h-4l-86 130l-4 2l-8 6q-26 -56 -57 -111t-61 -109l-12 -14l-62 -121q-14 -12 -36 -10z" />
    <glyph glyph-name="uni0426" unicode="&#x426;" 
d="M828 -138l-20 10q-16 22 -12 52l6 74q-37 2 -72 9t-71 9h-134l-50 -8h-190l-20 10l-19 14q-16 66 -21 136.5t-7 140.5l2 2v96q2 78 10 153.5t10 153.5l-4 64l10 20q15 12 37 10l20 -10q14 -34 15 -72t1 -78q-8 -61 -13 -123t-7 -126v-96l-2 -52q6 -40 8 -82t8 -83h156
l48 8h150l12 -2l2 103l-4 76l10 210l-2 74q6 64 11 131.5t21 129.5q14 12 36 10l21 -10q14 -16 10 -40q-4 -70 -12.5 -141.5t-8.5 -143.5l2 -72q-4 -42 -7 -86t-3 -88l4 -42v-95l-2 -24q29 -10 61 -7t58 -13q16 -24 10 -58q-10 -32 -9 -68t-13 -66q-14 -12 -36 -10z" />
    <glyph glyph-name="uni0427" unicode="&#x427;" 
d="M731 0l-20 10q-18 34 -16 74v187l4 32v82h-6q-50 -26 -99 -53t-109 -25q-50 6 -97 16t-85 44q-30 42 -38 94t-17 104v89q9 34 9 71t14 67q14 12 36 10l20 -10q16 -32 10 -72q-4 -36 -8 -72.5t-2 -74.5q6 -40 11 -80t27 -74q32 -22 70 -26t78 -8q50 18 96 43t88 61l8 80
v147l-6 68l10 20q14 12 36 10l20 -10q19 -36 19 -80v-163q-6 -40 -6 -81t-2 -83l2 -2v-100l-4 -32v-169l4 -64l-11 -20q-14 -12 -36 -10z" />
    <glyph glyph-name="uni0428" unicode="&#x428;" 
d="M180 0q-28 8 -56 20q-14 34 -17 72.5t-3 78.5l2 2v110l2 78q-6 46 -7 93t-9 93v89l-14 140q2 16 12 28q14 12 36 10l20 -10q12 -38 16 -79t8 -81v-89q8 -46 9 -93t7 -93v-92l-2 -2v-110l-2 -30l6 -57h24q38 8 79 8h110l80 8l2 31q-8 74 -11 150t-11 152q6 42 7 86t7 86
v147l-6 42l10 20q14 12 36 10l20 -10q14 -24 18 -54v-163q-6 -50 -8 -103t-6 -103q10 -72 13 -145t9 -146h12q40 6 83 6t85 2q43 -8 87 -8l20 2v79l-6 34v90l2 2v80q6 46 6 96q-4 28 -5 57t-1 59q10 53 13 108t15 105q14 12 36 10l20 -10q16 -44 10 -98q-4 -42 -10 -83.5
t-6 -85.5q2 -26 5 -53t1 -55l-6 -58v-80l-2 -76l6 -34v-87l6 -32q-2 -20 -14 -38q-18 -14 -44 -10l-38 2l-54 -2q-39 6 -81 8q-48 0 -96 -4l-96 -8l-36 4l-66 -8h-110q-30 0 -58.5 -4t-58.5 -4z" />
    <glyph glyph-name="uni0429" unicode="&#x429;" 
d="M938 -136l-20 10q-12 16 -12 36l8 92q-40 0 -78 3t-77 5h-140l-196 8q-54 -6 -109 -8t-112 -2l-78 4l-26 -4q-22 0 -38 12q-16 26 -16 58t-2 65v92l6 92l-4 86l2 74l-2 80l10 105v100q2 16 12 28q14 12 36 10l20 -10l10 -20v-116q-2 -43 -7 -83t-3 -84l2 -2v-88l-2 -38
l4 -94q-4 -30 -5 -61t-1 -63l2 -61l143 -4q42 0 84 3t84 7v14q-8 29 -6 63l6 26v114l4 28v98q6 44 4 90l-2 2v92q4 27 6 53t0 54l-4 54l10 20q14 12 36 10l20 -10q16 -30 16 -66v-72q-4 -30 -5 -61.5t-1 -63.5l2 -2v-88l-4 -22v-96l-4 -28v-114l-6 -50q8 -22 6 -47l118 -6
h138l67 -4v16l-2 73l4 24v114q-6 30 -8 63t0 67l2 2v271q-8 32 -6 68l10 20q14 12 36 10l20 -10q16 -36 18 -78v-289l-2 -64q6 -26 8 -52v-132l-4 -77l4 -30h16q14 10 32 8l20 -10q20 -22 16 -52q-10 -36 -9 -77t-15 -75q-14 -12 -36 -10z" />
    <glyph glyph-name="uni042A" unicode="&#x42a;" 
d="M433 -6q-36 2 -68 16q-12 34 -15 72.5t-3 76.5l4 16v84l10 92l-2 2v126l-4 44v145l6 46l-143 6l-86 -6l-20 10q-12 14 -10 36l10 20q28 14 63 15t69 3l139 -6l28 2l20 -10q14 -18 10 -44q0 -42 -8 -80v-129l4 -78h36q32 8 66 12t70 2q58 -10 117.5 -18t109.5 -42l16 -16
q16 -28 29 -59t19 -63v-80q-6 -26 -17 -49t-27 -44l-6 -6l-8 -8h-4v-4q-75 -44 -157 -59t-166 -25h-82zM778 133q26 20 38 48q10 38 6 80q-12 48 -40 88q-55 20 -113 30t-118 10q-28 -6 -56 -11t-58 -5v-12l2 -42l-10 -68v-84l-4 -57l6 -36l78 -2q70 8 137 20t132 41z" />
    <glyph glyph-name="uni042B" unicode="&#x42b;" 
d="M822 -8l-20 10q-20 42 -14 94q4 35 7 68t1 69l-2 80l4 154l-2 2v90l6 48v127l-2 50l10 20q14 12 36 10l20 -10q16 -28 14 -62v-143q-4 -30 -5 -60t-1 -62l2 -2v-88l-4 -144l2 -2v-82l-8 -101l2 -36l-10 -20q-14 -12 -36 -10zM204 -6l-20 10q-20 42 -14 96l4 33v168l4 18
v172l-4 62v109l-6 122l10 20q14 12 36 10l20 -10q14 -30 14 -65t4 -69v-109l5 -112h8q52 12 106 17t110 3q28 -6 56 -10t50 -22l24 -20q30 -42 44 -92t10 -106q-2 -28 -13 -51t-27 -45h-4v-4h-4v-4h-4v-5l-16 -14q-88 -58 -188 -79t-205 -23zM487 125q44 18 80 52
q28 40 20 94q-6 26 -14 51t-28 45l-4 2l-18 14q-28 4 -55 7t-57 1q-40 -2 -78 -9t-76 -11l-5 -78v-168l-4 -49h15q60 2 115 14t109 35z" />
    <glyph glyph-name="uni042C" unicode="&#x42c;" 
d="M297 -10l-20 10q-12 14 -14 30v115l2 2v100l6 70v148l-4 40v257q2 16 12 28q14 12 36 10l20 -10l10 -20v-257l4 -60h12q24 6 51 7t55 1q78 4 150 -15t138 -57l21 -20q22 -28 29 -62t7 -70q-6 -38 -21 -71t-40 -64l-6 -6h-4l-8 -16l-20 -20q-94 -52 -202 -56t-214 -14z
M641 108l30 23l28 36h4q24 40 30 90q0 40 -26 68q-66 40 -141 50t-153 8l-64 -10q2 -34 -1 -67t-5 -67v-100l-2 -65h20q72 4 143 8t137 26z" />
    <glyph glyph-name="uni042D" unicode="&#x42d;" 
d="M513 32q-54 6 -103 22t-93 46l-26 31v4l-6 4l-12 12q-16 24 -32.5 49t-18.5 55l10 20q14 12 37 10l20 -10l42 -72h4l30 -34q8 -14 22 -22q40 -16 83 -27.5t91 -9.5q40 9 76 27v4q28 18 44 50q28 42 41 91t13 103h-52q-58 -4 -117 -9t-119 -5q-16 2 -28 12q-12 14 -10 36
l10 20q78 10 159 16t163 8v22q-4 48 -10 95.5t-26 89.5l-6 4l-10 14q-32 34 -72 46t-88 6q-38 0 -68 -16l-60 -32v-4l-6 -6l-12 -10l-10 -4l-4 -8l-12 -6l-14 -26l-30 -35q-14 -12 -22 -30q-14 -12 -37 -10l-20 10q-12 16 -10 38l18 37q33 32 57 68q30 28 63 51t69 41
q42 20 92 20h86q40 -8 74 -26v-4l28 -16v-4l18 -10l26 -28v-4l6 -2q41 -58 49 -128.5t10 -142.5q2 -96 -20 -186t-85 -167l-8 -8l-20 -12v-4q-38 -24 -81 -36t-93 -8z" />
    <glyph glyph-name="uni042E" unicode="&#x42e;" 
d="M126 -2l-20 10q-12 14 -14 32v131l8 124t6 124v108l-2 56l2 67l-12 114q2 16 12 28q14 12 36 10l20 -10q12 -30 14 -64t8 -68v-83l-2 -40l2 -78h62q29 4 57 6t58 2q8 62 28 121.5t50 113.5q16 22 39 40t47 32q36 12 70 27t74 15q44 -10 89.5 -17t83.5 -31l2 -6l24 -12
l20 -16l6 -6l16 -20q30 -46 40 -99.5t26 -105.5v-114q-8 -76 -31 -148t-69 -137q-30 -40 -74 -64q-41 -16 -82 -29t-87 -11q-38 6 -72 23t-66 39l-32 32q-50 63 -83 136t-27 159h-38q-32 -4 -66.5 -7t-68.5 -3q0 -56 -4 -109t-6 -107v-113l2 -22l-10 -20q-14 -12 -36 -10z
M747 104q33 9 57 39l2 4h4q40 56 61 119t27 131v98q-16 46 -24 96.5t-46 88.5q-36 34 -84.5 42t-96.5 16v-4q-28 -10 -56 -18t-52 -24v-4l-20 -12v-4h-4l-2 -6h-4l-14 -24h-4q-28 -71 -45 -146t-15 -155q4 -52 28 -95t50 -85l6 -4l14 -14v-4h4v-4l6 -4q28 -21 58 -37t66 -16
q44 8 84 26z" />
    <glyph glyph-name="uni042F" unicode="&#x42f;" 
d="M703 -18l-20 10q-14 20 -12 47t-2 53v193q-8 42 -6 88h-8q-26 -8 -56 -6l-2 2h-82l-22 2l-26 -42h-4q-12 -28 -30 -54h-4q-34 -68 -74 -133.5t-74 -133.5q-14 -12 -37 -10l-20 10q-10 14 -12 32q42 89 92.5 175t102.5 170q-36 4 -70 11t-60 35q-29 30 -42 65t-9 77
q4 28 10 53.5t21 49.5h4l10 16q64 56 143 78t163 26h126q22 -2 38 -14q12 -14 10 -36l-6 -24l4 -32v-81q-6 -32 -9 -65t-1 -69q6 -46 4 -96l-2 -52l6 -34v-193l4 -86l-12 -22q-14 -12 -36 -10zM661 453l2 12l-2 2v88q6 30 9 61.5t1 65.5l-4 36h-84q-62 -2 -120 -17t-110 -43
l-2 -4l-12 -10l-22 -21q-14 -40 -12 -88q6 -24 22 -42l4 -2l10 -10l6 -8q44 -6 88 -13t88 -13h84l18 -2z" />
    <glyph glyph-name="uni0430" unicode="&#x430;" 
d="M447 -8q-46 6 -84 34q-26 26 -31 61.5t-3 73.5q4 32 20 60t38 52l42 32q48 30 98 54t106 32v10l-10 20q-24 16 -50 30t-58 10t-60 -17t-54 -33l-20 -30q-14 -12 -36 -10l-20 10q-12 14 -10 36q14 28 36 52l8 8q44 32 93 50t107 12q40 -10 76 -30l12 -10q26 -14 44 -38
q16 -24 20 -52t10 -56q-10 -40 -15 -81t-7 -85q14 -16 12 -38l-2 -12q12 -27 30 -51q24 -6 49 -18q12 -14 10 -36l-10 -20q-16 -12 -39 -12q-36 6 -66 28l-32 52h-6l-8 -14l-6 -6l-42 -28q-34 -14 -69 -26t-73 -14zM563 108l8 2v5l50 54q-2 38 2 72t8 70h-6q-50 -14 -94 -38
t-86 -54l-12 -18l-14 -14q-18 -36 -12 -83l10 -22l44 -12q26 8 52 17t50 21z" />
    <glyph glyph-name="uni0431" unicode="&#x431;" 
d="M491 16l-60 16t-52 32q-48 71 -73 149t-17 164q0 64 18 123t54 109l30 33h4v4q52 66 126 79t144 35q8 20 28 32l26 2l20 -10q14 -16 12 -40l-10 -20l-10 -4l-6 -12l-14 -14q-50 -36 -113 -36t-113 -37l-26 -26h-4v-4h-4l-2 -6l-6 -2v-4q-24 -22 -40 -50l-22 -54h4l6 8
l10 10l10 10l16 14h4v4q34 24 74 32t84 6q34 -8 64 -28v-4l34 -22l20 -22q34 -52 37 -116t5 -128q-6 -40 -14 -78t-34 -71h-4l-4 -10h-4v-4l-6 -6q-40 -30 -89 -42t-103 -12zM623 125q36 32 42 77t6 91q-6 40 -7 82t-31 72l-30 20v4q-26 14 -62 10q-34 -4 -62 -24l-2 -4
l-18 -16h-4v-4l-14 -14l-22 -18q-30 -30 -50 -68v-42q4 -50 26 -93t44 -85l66 -19q32 0 62 7t56 24z" />
    <glyph glyph-name="uni0432" unicode="&#x432;" 
d="M355 2q-16 2 -28 12q-20 32 -16 72l6 123l-2 2v84l4 20v90q4 38 4 78t12 76q14 12 36 10l20 -10v-4h16q40 12 84 16h96q46 -10 86 -36v-4l40 -26l6 -12h4q30 -38 24 -90q-6 -42 -34 -74h-4v-4l-12 -12l-26 -20l40 -20v-4l10 -4v-4h4q18 -24 24 -54t4 -64q-8 -26 -24 -49
l-8 -8h-4l-2 -6l-14 -12q-36 -24 -78 -32t-86 -14h-80l-64 10l-8 -18q-14 -10 -30 -12zM641 125l20 12l4 6q14 16 10 40l-8 26q-40 24 -83 42t-93 18h-98v-50l2 -46l-4 -60q34 -9 69 -12t73 -1q28 6 55 10.5t53 14.5zM645 373q26 22 24 56l-10 20q-32 30 -73 40t-89 4
l-94 -16l-6 -130h20q54 14 114 12t114 14z" />
    <glyph glyph-name="uni0433" unicode="&#x433;" 
d="M353 2l-20 10l-10 20v109l4 30v114q6 46 10 93t4 95l-2 24h-4q-12 14 -10 36l10 20l8 8q14 12 36 10l50 -2l58 4h186l60 2l20 -10q12 -14 10 -36l-10 -20q-32 -18 -74 -14h-188l-74 -4v-8l2 -78l-14 -128v-114l-4 -30v-99l-10 -20q-16 -14 -38 -12z" />
    <glyph glyph-name="uni0434" unicode="&#x434;" 
d="M285 -128q-16 2 -28 12q-21 30 -15 72q4 32 4 67t15 63q26 14 58 12q38 77 58 158t24 169q0 30 -3 60t-11 58l10 20q14 12 36 10l58 -12h116q40 0 78 6l30 -14q12 -22 12 -48v-52l-4 -28v-80q-6 -24 -7 -51t-1 -53l4 -28v-103q38 7 67 -12q14 -16 12 -40l-6 -60
q12 -36 8 -76l-10 -20q-14 -12 -37 -10l-20 10q-12 28 -15 60t-5 64l2 6h-70l-22 -4h-158l-52 -8h-84q-6 -44 -8 -90l4 -26l-10 -20q-14 -10 -30 -12zM639 110l2 3v92l-4 84l8 64v80l4 52h-34l-88 -4l-50 4v-50l2 -56q-10 -72 -26 -142t-46 -137h20l30 6h160z" />
    <glyph glyph-name="uni0435" unicode="&#x435;" 
d="M519 4q-50 0 -90 25t-74 63q-36 45 -53 97t-17 110q2 62 32 113t68 97q32 28 68 45t82 11q44 -4 80 -24t72 -42v-4h4l6 -6v-4h4q30 -38 39 -85t9 -97l-10 -20q-58 -20 -124 -22t-130 -10h-84l-34 -2v-4q6 -32 23 -61t39 -55l10 -6l36 -31l62 -10q28 2 52 15t46 32
q28 30 46 64q14 12 36 10l20 -10q12 -16 10 -38l-26 -51h-4v-4l-16 -18l-8 -8q-28 -28 -64 -46q-26 -12 -53 -18t-57 -6zM669 345v14q-4 42 -28 74l-4 2l-24 18q-26 18 -56 27t-64 7q-32 -14 -58 -40l-20 -30h-4q-28 -40 -42 -88l24 -2l2 2h84q46 6 94 9t96 7z" />
    <glyph glyph-name="uni0436" unicode="&#x436;" 
d="M531 -14q-16 2 -28 12q-18 30 -20 66v87q6 28 6 60l-2 50q-40 8 -78 20v-4l-16 -16l-8 -8h-4v-4h-4v-4h-4l-8 -16h-4q-28 -54 -61 -107.5t-62 -107.5l-14 -16q-14 -12 -36 -10l-20 10q-10 14 -12 32q2 16 14 30l16 20q32 55 62.5 111t68.5 108l10 10h4l4 6l6 10
q-24 28 -43 58t-37 60h-4l-9 8l-18 22q-20 10 -46 6l-20 -2l-20 10q-12 14 -10 36l10 20q40 20 90 14q29 -10 55 -28l12 -20l6 -4q18 -18 32 -38q22 -42 52 -80l4 -2v-4q22 -12 45 -25t49 -15v38l-14 152q2 16 12 28q14 12 36 10l20 -10q12 -48 17 -101t7 -105h8
q36 14 68 42q18 26 31 54t33 52q32 22 65.5 38t75.5 14l20 -10q12 -16 10 -38l-10 -20q-26 -8 -54 -15t-51 -27l-14 -16q-18 -46 -48 -86l-14 -14h-4v-4l-4 -8l4 -2v-4h4l6 -6l6 -12l6 -4l6 -4l16 -18v-4l6 -4q26 -42 55 -82l20 -24v-4h4l18 -22v-4h4l12 -25h4l8 -8l28 -36
l2 -24l-10 -20q-16 -12 -38 -10l-20 10q-24 26 -43.5 55t-45.5 54v4h-4q-30 40 -50 84l-6 2l-20 22l-8 8l-46 42l-30 -10l-2 -48l2 -48q-8 -46 -6 -99l10 -56l-10 -20q-14 -10 -30 -12z" />
    <glyph glyph-name="uni0437" unicode="&#x437;" 
d="M483 -4q-40 8 -76 23t-68 39q-36 38 -40 91l10 20q16 12 38 10l20 -10q12 -22 18 -44h4q16 -19 36 -29q36 -18 76 -22q44 4 86 11t78 30q24 32 18 74l-16 42l-6 4q-16 20 -36 32q-26 10 -57 8t-55 14q-14 16 -12 38l10 20q38 10 80 12t74 28l2 4l8 8q6 36 4 74l-8 16
q-26 18 -57 23t-65 3q-42 -2 -78 -20t-68 -46l-12 -18q-14 -12 -36 -10l-20 10q-12 14 -10 36l30 46l6 2l4 6q52 44 115 61t133 11q32 -6 61 -17t53 -31q24 -26 30 -60v-82q-6 -34 -26 -62h-4v-4l-6 -6l-6 -6l-16 -10v-4l18 -20v-4l6 -2q22 -30 32 -65t6 -75q-6 -43 -32 -79
h-4l-6 -12h-4v-4q-50 -30 -110 -41t-122 -13z" />
    <glyph glyph-name="uni0438" unicode="&#x438;" 
d="M675 -10l-20 10q-14 34 -13 74.5t-1 78.5l2 56l-4 88q4 26 7 52t3 54h-6q-10 -24 -28 -46h-4v-4l-6 -6l-8 -8h-4l-8 -14h-4v-4l-16 -14l-16 -16l-16 -16l-6 -6l-14 -14l-10 -10l-14 -16l-12 -10l-14 -26h-4l-38 -66h-4l-6 -12l-16 -17q-12 -10 -28 -10v-32l4 -32l-10 -20
q-16 -12 -38 -10l-20 10q-14 20 -14 44v159l-2 2v88l8 160v86q2 16 12 28q14 12 36 10l20 -10l10 -20v-102l-8 -232l2 -22h4q14 28 32 54t40 50l30 30l32 32l30 30l16 16q22 34 52 62h4v4h4l8 14l34 32q-6 46 10 82q14 12 36 10l20 -10q10 -14 12 -30v-88q-2 -60 -6 -120
l-8 -120q6 -46 4 -96l-2 -53l2 -74l-10 -20q-14 -12 -36 -10z" />
    <glyph glyph-name="uni0439" unicode="&#x439;" 
d="M689 -18q-16 2 -28 12q-18 30 -12 70l4 26v107l8 150l-4 72h-4l-4 -6l-12 -14l-8 -8h-4v-4l-6 -6l-12 -14l-14 -14l-6 -6h-4l-26 -38l-14 -16h-4l-12 -22l-42 -58l-10 -20h-4l-24 -40l-8 -8l-42 -47l-16 -18l-18 -20h-4v-4q8 -12 6 -30q-2 -16 -12 -30q-16 -12 -38 -10
l-20 10q-20 38 -16 86l8 105v94l8 118v114l-2 32l10 20q14 12 36 10l20 -10q12 -20 14 -44v-130l-8 -118v-86h4l6 8q30 36 55 75t53 77l50 60l6 6l8 8l18 20q30 36 68 64h4v4l18 8q-6 38 12 68q14 12 36 10l20 -10l10 -20v-82l6 -196q-8 -48 -8 -98v-107l-4 -42l2 -26
l-10 -20q-14 -10 -30 -12zM497 623q-38 5 -71 18t-61 43q-22 30 -22 68l10 20q14 12 36 10l20 -10l22 -42q38 -28 86 -28l66 18v4l6 6l18 22l18 26q14 12 36 10l20 -10q12 -16 10 -38q-6 -22 -20 -38l-6 -2l-4 -10h-4l-8 -16q-32 -28 -71 -38t-81 -13z" />
    <glyph glyph-name="uni043A" unicode="&#x43a;" 
d="M341 -14l-20 10q-20 30 -14 72l8 109v142l6 104v92l-2 32q2 16 12 28q14 12 36 10l20 -10q14 -22 12 -50v-110l-4 -92h18q28 6 56 11t50 23q24 46 35 96t47 90q22 14 46 24t54 6q20 -2 36 -14q12 -14 10 -36l-10 -20q-16 -12 -38 -10l-24 2q-30 -16 -44 -50
q-8 -38 -18 -74t-34 -66l-10 -8v-6h4q22 -28 35 -60t29 -62h4l16 -18v-4h4q12 -26 33 -47.5t41 -43.5l2 -26l-10 -20q-14 -12 -36 -10q-20 8 -36 24l-22 22v4h-4q-22 38 -52 75h-4q-20 32 -35 68t-39 66l-8 2q-46 -14 -98 -16q0 -54 -3 -106.5t-5 -104.5l2 -18l-10 -20
q-14 -12 -36 -10z" />
    <glyph glyph-name="uni043B" unicode="&#x43b;" 
d="M269 0q-17 2 -29 12q-12 14 -10 36l10 20q29 12 60 17t53 32q36 50 39 114t5 128q-4 46 -9 92t-11 92l10 20q14 12 36 10q46 -6 94 -6l48 8h134l34 -16q16 -28 14 -64v-100q-4 -40 -6 -80t-2 -82l2 -2v-116l-2 -49l2 -32l-10 -20q-14 -12 -36 -10l-20 10q-14 22 -14 51
v58l2 2v98l-2 64l8 116v82l-2 12h-96q-26 -4 -53 -7t-55 -1v-8q6 -46 10 -94t2 -98q-2 -62 -13 -121.5t-51 -107.5l-6 -6q-28 -26 -63 -39t-73 -15z" />
    <glyph glyph-name="uni043C" unicode="&#x43c;" 
d="M279 0l-20 10q-15 20 -15 46v119l6 42v80l7 70v88l-3 80l11 20q14 12 36 10l20 -10l6 -8l18 -8l24 -28q36 -82 70 -166t56 -172h4q38 104 89 200t113 188q14 12 36 10q16 -2 30 -12q17 -38 13 -82v-86q-2 -34 -5 -67t-1 -69l4 -74l-2 -42l6 -107l-10 -20q-15 -12 -37 -10
l-20 10q-18 38 -17 84.5t-1 90.5l2 28l-4 30v86l6 76h-4q-52 -88 -92 -183t-78 -192q-16 -12 -38 -10l-20 10q-40 85 -66 176t-64 177h-4l-6 -96v-80l-6 -42v-103l2 -34l-10 -20q-14 -12 -36 -10z" />
    <glyph glyph-name="uni043D" unicode="&#x43d;" 
d="M329 4l-20 10q-14 20 -14 44v101q8 44 6 94l-2 2v110l-2 2v122l-2 56l10 20q14 12 36 10l20 -10q16 -30 14 -66v-124l2 -36l32 -2q60 4 118 12t120 8l2 60v122q2 16 12 28q14 12 36 10l20 -10l10 -20v-138l-2 -2v-100l-2 -44l2 -78q-6 -40 -5 -83.5t-11 -81.5
q-14 -12 -36 -10l-20 10q-12 16 -14 36q2 50 5 98.5t3 98.5l-2 26h-50q-52 -8 -106 -13t-110 -7q0 -28 -1 -55t-5 -53v-83l2 -34l-10 -20q-14 -12 -36 -10z" />
    <glyph glyph-name="uni043E" unicode="&#x43e;" 
d="M513 8q-38 4 -75 12t-67 32l-2 6l-6 2l-20 36h-4q-24 27 -36 58t-14 65v86q4 52 18 100t48 88l14 14l74 56q28 12 62 14q34 -8 70 -12t62 -30l2 -6h4v-4l6 -4l10 -8v-4h4v-4l20 -12q22 -20 34 -46q12 -40 21 -82t5 -90q-6 -52 -17 -101t-45 -90l-6 -2l-4 -10
q-26 -28 -60 -48q-46 -16 -98 -16zM583 100l26 27l22 24h4q18 40 24 85t6 93q-6 26 -11 51t-15 47h-4l-38 32l-28 28q-42 4 -82 8l-34 -22q-20 -16 -38 -34t-28 -42q-14 -38 -18 -81t-2 -87q0 -46 30 -80l6 -4l24 -35q24 -16 52 -19t58 -5z" />
    <glyph glyph-name="uni043F" unicode="&#x43f;" 
d="M323 8l-20 10q-18 24 -16 58v95q6 78 9 156t5 156l-2 48l10 20q14 12 36 10l46 -4l26 6h236l40 2l20 -10l4 -10h4q14 -44 14 -92v-158q-6 -70 -10 -138.5t-14 -136.5q-14 -12 -36 -10l-20 10q-18 34 -12 76l14 207v142l-4 40h-230l-44 -6v-80q-6 -78 -9 -157t-5 -158
l4 -46l-10 -20q-14 -12 -36 -10z" />
    <glyph glyph-name="uni0440" unicode="&#x440;" 
d="M333 -124l-20 10q-18 48 -21 103t-9 107v109l6 122v128q-2 54 16 98q14 12 36 10l20 -10q16 -26 10 -62h4q48 46 109 65t129 13q30 -8 56 -28q28 -16 54 -40l32 -44q15 -40 20 -84t3 -92q-4 -48 -18.5 -93t-42.5 -84l-20 -18q-38 -26 -82 -34t-94 -4q-42 6 -82 15t-76 27
v-12q4 -42 8 -86t8 -86l-10 -20q-14 -12 -36 -10zM645 147q34 38 45 87t9 103q-2 32 -9 63t-31 55q-24 10 -44 26t-50 10q-56 0 -99 -30t-85 -66l-2 -4l-12 -8l-6 -196q48 -36 106 -49t122 -11q30 6 56 20z" />
    <glyph glyph-name="uni0441" unicode="&#x441;" 
d="M499 8q-40 2 -73 17t-65 35v4l-38 34q-30 39 -37 86t-5 99q6 60 28 111t64 95q38 36 83 57t101 17q28 -4 53 -15t47 -27v-4l6 -2l2 -6l24 -14l8 -8q22 -22 22 -52l-10 -20q-14 -12 -36 -10l-20 10q-20 26 -48 44v4q-38 26 -90 22q-30 -10 -58 -26v-4l-24 -20l-10 -12h-4
l-6 -12l-28 -36q-16 -34 -22 -72t-4 -78q2 -38 18 -70h4l20 -20l8 -8q18 -14 38 -27q32 -14 72 -14q28 4 52 16.5t44 34.5l32 48q16 12 38 10l20 -10q12 -14 10 -36q-16 -39 -44 -71l-18 -16h-4v-4q-32 -26 -70 -38t-80 -12z" />
    <glyph glyph-name="uni0442" unicode="&#x442;" 
d="M507 2l-20 10q-18 30 -18 68v85l8 144v88l-4 66l-54 2l-60 -2q-42 6 -80 22q-12 14 -10 36l10 20q20 14 46 10q40 -12 86 -10l56 2l46 -2l30 6h136l40 4l20 -10q12 -16 10 -38l-10 -20q-24 -16 -54 -14h-132v-62l2 -2v-104l-8 -211l6 -58l-10 -20q-14 -12 -36 -10z" />
    <glyph glyph-name="uni0443" unicode="&#x443;" 
d="M327 -132q-30 4 -56 24q-14 16 -12 38l10 20q14 12 36 10q32 -20 76 -14q32 6 56 30q20 36 41 73t33 78l-10 4q-64 100 -118 202t-96 208l10 20q14 12 36 10l20 -10q16 -36 35 -72t39 -72h4q26 -46 46 -93t48 -91h4l8 -16h6q46 86 78 178t88 172q14 12 36 10l20 -10
q13 -14 11 -36q-81 -148 -141 -306.5t-142 -306.5l-8 -8q-32 -26 -72 -36t-86 -6z" />
    <glyph glyph-name="uni0444" unicode="&#x444;" 
d="M509 -124l-20 10q-12 14 -14 30v82l2 50l-2 36h-4l-2 -6l-12 -6v-4q-32 -24 -68 -38t-78 -14q-30 4 -57.5 13t-49.5 27v4l-6 2q-38 42 -50 97.5t-8 115.5q2 52 8 103t34 93l24 26h4l2 6l14 14q26 20 55.5 33t65.5 11q38 0 71 -15t63 -35v4l-4 18v147q-10 34 -8 72
q0 24 14 44q14 12 36 10l20 -10q14 -18 10 -42l-2 -28l8 -38v-147l4 -36h6q42 32 88 50t102 14q47 -14 85 -46l20 -20l6 -6q24 -26 35 -58t13 -68v-106q-8 -40 -19 -79t-35 -73l-10 -13l-14 -14l-8 -8l-12 -6v-4q-24 -18 -53.5 -26t-63.5 -6q-38 8 -75 21t-69 35l-2 -34
l2 -66l-2 -66l2 -20l-10 -20q-14 -12 -36 -10zM381 115l34 20l2 6q28 32 64 40v8l-6 50q4 38 5 77t3 77l-10 6l-16 16l-20 28h-4l-22 18q-36 24 -84 22q-28 -10 -52 -30l-2 -4h-4l-12 -18l-9 -8l-6 -4q-20 -42 -21 -91t-3 -99q0 -30 7 -56t23 -48l4 -2l27 -21l44 -8
q32 4 58 21zM749 121q43 22 63 64l24 88v90q-2 30 -13 56t-37 46q-29 28 -69 26q-30 -6 -56 -20l-52 -28v-4h-4l-4 -6l-14 -8v-4h-4v-4l-20 -20q-4 -42 -5 -87t-5 -87l6 -40q30 -14 58 -34v-4q26 -10 54 -20t58 -10z" />
    <glyph glyph-name="uni0445" unicode="&#x445;" 
d="M323 -6q-16 2 -28 12q-12 14 -10 36l10 20l10 4v4h4l20 28l6 2q42 51 69 108t63 109l-38 54l-6 2l-8 8q-24 42 -56 79t-48 81l10 20q14 12 36 10l20 -10l26 -24l56 -86h4l10 -18h4q24 -24 40 -54h6q28 36 52 74t56 72l6 6l6 6h4l14 22q22 26 54 26l20 -10q12 -14 10 -36
l-10 -20l-28 -32h-4l-2 -6l-6 -2l-2 -6h-4l-4 -6l-16 -20l-38 -54l-34 -48l-24 -32v-8l22 -26l28 -46l6 -4l14 -22h4q22 -36 50 -66v-4l6 -2l42 -55h4q12 -16 10 -38l-10 -20q-14 -12 -36 -10l-30 20l-2 6l-6 2l-50 60q-26 37 -52 73l-52 72h-6q-26 -42 -49 -87t-53 -88
l-18 -20h-4l-6 -10l-6 -2l-4 -10h-4l-12 -20q-16 -12 -36 -14z" />
    <glyph glyph-name="uni0446" unicode="&#x446;" 
d="M737 -96l-20 10q-14 28 -16 61t-2 67h-4l-36 -6q-22 6 -48 6q-74 -10 -150 -12t-148 -20l-20 10q-10 12 -12 28v121q6 98 9 197t19 195q14 12 36 10l20 -10q16 -28 10 -66q-4 -98 -9 -196t-7 -197h16q62 0 122 7.5t122 11.5l6 96v176q6 44 8 91t16 89q14 12 36 10l20 -10
q14 -18 10 -42l-12 -146v-176l-6 -78l2 -6q40 6 71 -10q16 -33 10 -73l-2 -44l6 -64l-10 -20q-15 -12 -37 -10z" />
    <glyph glyph-name="uni0447" unicode="&#x447;" 
d="M649 -4l-20 10q-12 16 -14 36q6 28 4 58l-2 51q4 28 7 56t3 58h-8q-26 -16 -57 -23t-65 -5q-36 4 -71 12t-65 30v4l-6 4q-26 34 -37 74t-7 86q2 30 6 61t16 57q14 12 36 10l20 -10q14 -18 10 -42q-6 -32 -8 -64t-2 -66l22 -54l6 -2v-4q28 -10 59 -14t63 -4q26 8 49 22
t45 34l4 24v98l-2 62q2 16 12 28q14 12 36 10l20 -10q16 -38 12 -82v-114q-8 -68 -11 -138t-9 -139l2 -66q0 -22 -12 -38q-14 -12 -36 -10z" />
    <glyph glyph-name="uni0448" unicode="&#x448;" 
d="M232 2q-34 2 -64 16q-12 14 -14 32v131l6 76v180l-2 76q0 24 14 44q14 12 36 10l20 -10q14 -18 10 -42l-2 -68l2 -2v-196l-6 -76v-93h59q48 6 96 8t96 8v17l-2 2v98l-4 38v98q-2 44 -5 89t-9 87q0 26 14 46q14 12 36 10l20 -10q12 -50 15 -105t7 -109v-98l4 -38v-98
l4 -21l14 -2l70 4h100l33 -2q0 43 6 84t6 83v152l-2 2v80q-2 32 14 56q14 12 36 10l20 -10q16 -26 10 -62l-2 -66l2 -2v-168q0 -46 -7 -89t-5 -90q14 -14 10 -36l-10 -20q-14 -12 -36 -10q-40 10 -83 10h-86q-106 -4 -210 -13t-211 -11z" />
    <glyph glyph-name="uni0449" unicode="&#x449;" 
d="M890 -116l-20 10q-16 26 -14 58t-4 62l-87 6l-78 -2l-42 4h-146q-72 -10 -147 -14t-150 -10q-18 4 -32 14q-14 18 -18 42v91q6 70 11 143t5 145l-2 2v104q2 16 12 28q14 12 36 10l20 -10l10 -20v-104l2 -76q-4 -72 -8 -143t-8 -144h22q57 2 111 7t108 9v17l-2 2v198l-2 2
v110l-2 2v98q0 24 14 44q14 12 36 10l20 -10q14 -18 10 -42l-2 -2v-90l2 -2v-110l2 -2v-198l2 -23h104l102 -4l25 4l2 2v113l-4 62l8 62v80l-2 2v126q2 16 12 28q14 12 36 10l20 -10l10 -20v-126l2 -2v-96l-8 -88l4 -20v-131q36 2 64 -14q12 -16 10 -38l-4 -24q4 -24 4 -50
t2 -52l-10 -20q-14 -12 -36 -10z" />
    <glyph glyph-name="uni044A" unicode="&#x44a;" 
d="M445 -10q-24 -2 -42 12q-14 18 -12 44l6 50v91l2 78l-4 40v168h-12l-54 -2q-28 4 -59.5 3t-55.5 13q-12 14 -10 36l10 20q38 16 85 10l76 -4q32 8 68 12l20 -10l10 -20v-186h62q34 6 72 4q42 -8 81 -22t77 -34l2 -6l7 -2v-4h4q24 -34 27 -75t3 -85q-4 -37 -28 -67
q-19 -22 -45 -34q-38 -16 -81 -21t-87 -9h-122zM697 90l16 6q24 35 16 81q-2 28 -12 54q-38 16 -77 30t-85 10q-36 -6 -76 -6l-2 -2v-82l-2 -2v-91l-2 -20h88q34 4 69 7t67 15z" />
    <glyph glyph-name="uni044B" unicode="&#x44b;" 
d="M257 -2l-21 10q-10 12 -12 28v121l6 58v124l2 2v86q0 28 -3 54t-5 52q2 16 12 28q14 12 37 10l20 -10q12 -28 14 -61t4 -65v-90h10l46 6h96q36 -4 66 -21t58 -39q26 -30 34 -68t6 -80q-6 -30 -26 -57q-24 -30 -60 -46q-56 -20 -114 -30t-120 -10l-24 2zM749 4l-20 10
q-10 16 -14 34v83l-2 58l2 2v100l-4 34v114l2 2v80q0 24 14 44q14 12 36 10l21 -10q14 -18 10 -42l-2 -2v-88l-2 -2v-98l4 -34v-116l-2 -42l2 -2v-81l2 -24l-10 -20q-14 -12 -37 -10zM511 115l20 10q22 20 18 50q2 34 -20 60l-4 2v4q-32 24 -70 32h-82l-64 -8q0 -48 -4 -92
t-2 -93l50 -2q42 6 82 13t76 24z" />
    <glyph glyph-name="uni044C" unicode="&#x44c;" 
d="M355 2l-20 10q-12 24 -14 54t-2 61q8 50 10 103t6 105v94l-4 102q2 16 12 28q14 12 36 10l20 -10q12 -28 11 -60t3 -62v-98h8l56 8h134q48 -8 90 -30l22 -18l8 -8q26 -32 32.5 -71t3.5 -83q-6 -39 -28 -69l-6 -6q-86 -42 -183 -48t-195 -12zM675 119q20 28 14 68
q0 32 -20 56q-30 22 -66 26h-120q-40 -2 -76 -14q0 -44 -5 -85t-5 -86h48q60 4 118 10t112 25z" />
    <glyph glyph-name="uni044D" unicode="&#x44d;" 
d="M491 0q-36 6 -68 18t-62 32v4h-4l-58 71l-2 24l10 20q16 12 38 10l22 -12l24 -28v-4h4q14 -27 42 -39q42 -18 92 -18q30 4 56 17t48 36l24 32h4q24 40 18 94h-28q-40 -4 -81 -9t-83 -5q-28 0 -50 14q-12 14 -10 36l10 20q20 14 48 10l38 -2l152 14v10q0 34 -13 64t-33 58
l-4 2l-10 10v4q-26 20 -60 16q-48 2 -88 -16v-4l-12 -10l-10 -4v-4q-22 -16 -43 -31t-39 -35q-14 -12 -36 -10l-20 10q-12 14 -10 36q8 22 26 38l20 12v4q50 50 112 75t136 17q38 -6 68 -30v-4l10 -4l8 -8v-4l6 -4q26 -26 42 -60q28 -58 29 -125t3 -133q-4 -34 -19 -62
t-37 -55h-4l-4 -10l-12 -14l-18 -10v-4q-36 -30 -80 -40t-92 -10z" />
    <glyph glyph-name="uni044E" unicode="&#x44e;" 
d="M597 -16q-48 8 -88 36v4q-18 10 -34 24q-20 22 -35 47.5t-31 49.5q-8 26 -9 56t-1 60h-48l-46 -6l-4 -78v-81q8 -38 8 -78l-10 -20q-14 -12 -36 -10l-21 10q-18 42 -20 90v97l4 36v138l-2 2v82l-6 86q2 16 12 28q14 12 37 10l20 -10q12 -24 12 -52t4 -54v-82l2 -36h12
q44 8 92 6q8 40 26 77t44 69l10 10q20 22 46 36q34 18 67 34t77 10q42 -8 76 -32l12 -12v-4l7 -4l6 -4l16 -18v-4h4l4 -10l6 -4l4 -8h4l8 -16h4q24 -38 35 -82t9 -94q2 -64 -19 -119.5t-55 -105.5h-4l-6 -12h-4v-4h-4v-4l-21 -18q-36 -28 -80 -36h-84zM693 70q24 16 44 40
l10 11q31 42 41 93t8 105q-4 30 -14 59t-29 53l-6 4l-12 18l-10 6l-10 10l-6 6v4q-24 20 -58 18q-26 -6 -48 -19t-44 -27l-2 -4l-10 -4l-4 -6l-4 -6h-4q-24 -32 -38 -68t-20 -76v-82q8 -50 42 -90h4v-5l22 -14v-4h4l24 -20q22 -10 49 -10h53z" />
    <glyph glyph-name="uni044F" unicode="&#x44f;" 
d="M315 -18l-20 10q-12 16 -10 38q28 56 59 111.5t63 109.5q-46 10 -82 46q-14 24 -22 50t-6 56q4 26 14 50t30 44q54 30 110 55t122 21q32 -12 69 -10t67 -12q12 -14 10 -36l-8 -16v-84l2 -2v-270l-2 -47l2 -72l-10 -20q-14 -12 -36 -10l-20 10q-14 32 -13 70.5t-1 74.5
l2 2v92h-4l-46 -4h-96q-32 -62 -68 -122.5t-68 -122.5q-16 -14 -38 -12zM635 321v84l-2 80q-28 0 -53 6t-53 4q-36 -12 -70 -27t-68 -31q-14 -26 -14 -60l10 -32q24 -14 51 -20t55 -8h88z" />
    <glyph glyph-name="uni0451" unicode="&#x451;" 
d="M561 8q-56 0 -107 14t-93 46q-24 26 -42 57q-16 40 -24 84t-8 92q6 38 15 75t35 67q22 22 49 41t55 33q32 18 69 21t77 1q50 -12 90 -42l6 -6l18 -18q26 -30 44 -68q8 -26 8 -55v-59l-10 -20q-14 -10 -30 -12h-96l-22 4h-148l-80 -10v-10q8 -28 14 -57t28 -53
q12 -14 28 -23q34 -12 70 -18t74 -6q38 12 70 43l2 4l22 26h4l16 30q14 12 36 10l20 -10q14 -16 10 -40l-22 -41l-10 -12l-6 -6h-4l-4 -10h-4l-4 -6q-18 -24 -42 -36t-49 -22t-55 -8zM675 337v20q-8 46 -48 78q-22 18 -49 23t-57 3q-26 -4 -49 -17t-47 -27l-2 -4
q-26 -20 -44 -48l-6 -32h8q28 6 60 8h162zM395 638q-24 4 -44 20q-12 14 -14 34q2 16 12 28q26 32 68 26l24 -12l20 -28l2 -32l-12 -22q-24 -18 -56 -14zM621 644q-18 2 -32 14q-14 18 -12 44q2 16 14 30q20 16 48 12q16 -2 30 -12q18 -24 16 -56l-10 -20q-24 -16 -54 -12z
" />
    <glyph glyph-name="uni0452" unicode="&#x452;" horiz-adv-x="512" 
 />
    <glyph glyph-name="uni0453" unicode="&#x453;" horiz-adv-x="512" 
 />
    <glyph glyph-name="uni0454" unicode="&#x454;" horiz-adv-x="512" 
 />
    <glyph glyph-name="uni0455" unicode="&#x455;" horiz-adv-x="512" 
 />
    <glyph glyph-name="uni0456" unicode="&#x456;" horiz-adv-x="512" 
 />
    <glyph glyph-name="uni0457" unicode="&#x457;" horiz-adv-x="512" 
 />
    <glyph glyph-name="uni0458" unicode="&#x458;" horiz-adv-x="512" 
 />
    <glyph glyph-name="uni0459" unicode="&#x459;" horiz-adv-x="512" 
 />
    <glyph glyph-name="uni045A" unicode="&#x45a;" horiz-adv-x="512" 
 />
    <glyph glyph-name="uni045B" unicode="&#x45b;" horiz-adv-x="512" 
 />
    <glyph glyph-name="uni045C" unicode="&#x45c;" horiz-adv-x="512" 
 />
    <glyph glyph-name="uni045E" unicode="&#x45e;" horiz-adv-x="512" 
 />
    <glyph glyph-name="uni045F" unicode="&#x45f;" horiz-adv-x="512" 
 />
    <glyph glyph-name="uni0460" unicode="&#x460;" horiz-adv-x="512" 
 />
    <glyph glyph-name="uni0461" unicode="&#x461;" horiz-adv-x="512" 
 />
    <glyph glyph-name="uni0462" unicode="&#x462;" horiz-adv-x="512" 
 />
    <glyph glyph-name="uni0463" unicode="&#x463;" horiz-adv-x="512" 
 />
    <glyph glyph-name="uni0464" unicode="&#x464;" horiz-adv-x="512" 
 />
    <glyph glyph-name="uni0465" unicode="&#x465;" horiz-adv-x="512" 
 />
    <glyph glyph-name="uni0466" unicode="&#x466;" horiz-adv-x="512" 
 />
    <glyph glyph-name="uni0467" unicode="&#x467;" horiz-adv-x="512" 
 />
    <glyph glyph-name="uni0468" unicode="&#x468;" horiz-adv-x="512" 
 />
    <glyph glyph-name="uni0469" unicode="&#x469;" horiz-adv-x="512" 
 />
    <glyph glyph-name="uni046A" unicode="&#x46a;" horiz-adv-x="512" 
 />
    <glyph glyph-name="uni046B" unicode="&#x46b;" horiz-adv-x="512" 
 />
    <glyph glyph-name="uni046C" unicode="&#x46c;" horiz-adv-x="512" 
 />
    <glyph glyph-name="uni046D" unicode="&#x46d;" horiz-adv-x="512" 
 />
    <glyph glyph-name="uni046E" unicode="&#x46e;" horiz-adv-x="512" 
 />
    <glyph glyph-name="uni046F" unicode="&#x46f;" horiz-adv-x="512" 
 />
    <glyph glyph-name="uni0470" unicode="&#x470;" horiz-adv-x="512" 
 />
    <glyph glyph-name="uni0471" unicode="&#x471;" horiz-adv-x="512" 
 />
    <glyph glyph-name="uni0472" unicode="&#x472;" horiz-adv-x="512" 
 />
    <glyph glyph-name="uni0473" unicode="&#x473;" horiz-adv-x="512" 
 />
    <glyph glyph-name="uni0474" unicode="&#x474;" horiz-adv-x="512" 
 />
    <glyph glyph-name="uni0475" unicode="&#x475;" horiz-adv-x="512" 
 />
    <glyph glyph-name="uni0476" unicode="&#x476;" horiz-adv-x="512" 
 />
    <glyph glyph-name="uni0477" unicode="&#x477;" horiz-adv-x="512" 
 />
    <glyph glyph-name="uni0478" unicode="&#x478;" horiz-adv-x="512" 
 />
    <glyph glyph-name="uni0479" unicode="&#x479;" horiz-adv-x="512" 
 />
    <glyph glyph-name="uni047A" unicode="&#x47a;" horiz-adv-x="512" 
 />
    <glyph glyph-name="uni047B" unicode="&#x47b;" horiz-adv-x="512" 
 />
    <glyph glyph-name="uni047C" unicode="&#x47c;" horiz-adv-x="512" 
 />
    <glyph glyph-name="uni047D" unicode="&#x47d;" horiz-adv-x="512" 
 />
    <glyph glyph-name="uni047E" unicode="&#x47e;" horiz-adv-x="512" 
 />
    <glyph glyph-name="uni047F" unicode="&#x47f;" horiz-adv-x="512" 
 />
    <glyph glyph-name="uni0480" unicode="&#x480;" horiz-adv-x="512" 
 />
    <glyph glyph-name="uni0481" unicode="&#x481;" horiz-adv-x="512" 
 />
    <glyph glyph-name="uni0482" unicode="&#x482;" horiz-adv-x="512" 
 />
    <glyph glyph-name="uni0483" unicode="&#x483;" horiz-adv-x="512" 
 />
    <glyph glyph-name="uni0484" unicode="&#x484;" horiz-adv-x="512" 
 />
    <glyph glyph-name="uni0485" unicode="&#x485;" horiz-adv-x="512" 
 />
    <glyph glyph-name="uni0486" unicode="&#x486;" horiz-adv-x="512" 
 />
    <glyph glyph-name="uni0490" unicode="&#x490;" horiz-adv-x="512" 
 />
    <glyph glyph-name="uni0491" unicode="&#x491;" horiz-adv-x="512" 
 />
    <glyph glyph-name="uni0492" unicode="&#x492;" horiz-adv-x="512" 
 />
    <glyph glyph-name="uni0493" unicode="&#x493;" horiz-adv-x="512" 
 />
    <glyph glyph-name="uni0494" unicode="&#x494;" horiz-adv-x="512" 
 />
    <glyph glyph-name="uni0495" unicode="&#x495;" horiz-adv-x="512" 
 />
    <glyph glyph-name="uni0496" unicode="&#x496;" horiz-adv-x="512" 
 />
    <glyph glyph-name="uni0497" unicode="&#x497;" horiz-adv-x="512" 
 />
    <glyph glyph-name="uni0498" unicode="&#x498;" horiz-adv-x="512" 
 />
    <glyph glyph-name="uni0499" unicode="&#x499;" horiz-adv-x="512" 
 />
    <glyph glyph-name="uni049A" unicode="&#x49a;" horiz-adv-x="512" 
 />
    <glyph glyph-name="uni049B" unicode="&#x49b;" horiz-adv-x="512" 
 />
    <glyph glyph-name="uni049C" unicode="&#x49c;" horiz-adv-x="512" 
 />
    <glyph glyph-name="uni049D" unicode="&#x49d;" horiz-adv-x="512" 
 />
    <glyph glyph-name="uni049E" unicode="&#x49e;" horiz-adv-x="512" 
 />
    <glyph glyph-name="uni049F" unicode="&#x49f;" horiz-adv-x="512" 
 />
    <glyph glyph-name="uni04A0" unicode="&#x4a0;" horiz-adv-x="512" 
 />
    <glyph glyph-name="uni04A1" unicode="&#x4a1;" horiz-adv-x="512" 
 />
    <glyph glyph-name="uni04A2" unicode="&#x4a2;" horiz-adv-x="512" 
 />
    <glyph glyph-name="uni04A3" unicode="&#x4a3;" horiz-adv-x="512" 
 />
    <glyph glyph-name="uni04A4" unicode="&#x4a4;" horiz-adv-x="512" 
 />
    <glyph glyph-name="uni04A5" unicode="&#x4a5;" horiz-adv-x="512" 
 />
    <glyph glyph-name="uni04A6" unicode="&#x4a6;" horiz-adv-x="512" 
 />
    <glyph glyph-name="uni04A7" unicode="&#x4a7;" horiz-adv-x="512" 
 />
    <glyph glyph-name="uni04A8" unicode="&#x4a8;" horiz-adv-x="512" 
 />
    <glyph glyph-name="uni04A9" unicode="&#x4a9;" horiz-adv-x="512" 
 />
    <glyph glyph-name="uni04AA" unicode="&#x4aa;" horiz-adv-x="512" 
 />
    <glyph glyph-name="uni04AB" unicode="&#x4ab;" horiz-adv-x="512" 
 />
    <glyph glyph-name="uni04AC" unicode="&#x4ac;" horiz-adv-x="512" 
 />
    <glyph glyph-name="uni04AD" unicode="&#x4ad;" horiz-adv-x="512" 
 />
    <glyph glyph-name="uni04AE" unicode="&#x4ae;" horiz-adv-x="512" 
 />
    <glyph glyph-name="uni04AF" unicode="&#x4af;" horiz-adv-x="512" 
 />
    <glyph glyph-name="uni04B0" unicode="&#x4b0;" horiz-adv-x="512" 
 />
    <glyph glyph-name="uni04B1" unicode="&#x4b1;" horiz-adv-x="512" 
 />
    <glyph glyph-name="uni04B2" unicode="&#x4b2;" horiz-adv-x="512" 
 />
    <glyph glyph-name="uni04B3" unicode="&#x4b3;" horiz-adv-x="512" 
 />
    <glyph glyph-name="uni04B4" unicode="&#x4b4;" horiz-adv-x="512" 
 />
    <glyph glyph-name="uni04B5" unicode="&#x4b5;" horiz-adv-x="512" 
 />
    <glyph glyph-name="uni04B6" unicode="&#x4b6;" horiz-adv-x="512" 
 />
    <glyph glyph-name="uni04B7" unicode="&#x4b7;" horiz-adv-x="512" 
 />
    <glyph glyph-name="uni04B8" unicode="&#x4b8;" horiz-adv-x="512" 
 />
    <glyph glyph-name="uni04B9" unicode="&#x4b9;" horiz-adv-x="512" 
 />
    <glyph glyph-name="uni04BA" unicode="&#x4ba;" horiz-adv-x="512" 
 />
    <glyph glyph-name="uni04BB" unicode="&#x4bb;" horiz-adv-x="512" 
 />
    <glyph glyph-name="uni04BC" unicode="&#x4bc;" horiz-adv-x="512" 
 />
    <glyph glyph-name="uni04BD" unicode="&#x4bd;" horiz-adv-x="512" 
 />
    <glyph glyph-name="uni04BE" unicode="&#x4be;" horiz-adv-x="512" 
 />
    <glyph glyph-name="uni04BF" unicode="&#x4bf;" horiz-adv-x="512" 
 />
    <glyph glyph-name="uni04C0" unicode="&#x4c0;" horiz-adv-x="512" 
 />
    <glyph glyph-name="uni04C1" unicode="&#x4c1;" horiz-adv-x="512" 
 />
    <glyph glyph-name="uni04C2" unicode="&#x4c2;" horiz-adv-x="512" 
 />
    <glyph glyph-name="uni04C3" unicode="&#x4c3;" horiz-adv-x="512" 
 />
    <glyph glyph-name="uni04C4" unicode="&#x4c4;" horiz-adv-x="512" 
 />
    <glyph glyph-name="uni04C7" unicode="&#x4c7;" horiz-adv-x="512" 
 />
    <glyph glyph-name="uni04C8" unicode="&#x4c8;" horiz-adv-x="512" 
 />
    <glyph glyph-name="uni04CB" unicode="&#x4cb;" horiz-adv-x="512" 
 />
    <glyph glyph-name="uni04CC" unicode="&#x4cc;" horiz-adv-x="512" 
 />
    <glyph glyph-name="uni04D0" unicode="&#x4d0;" horiz-adv-x="512" 
 />
    <glyph glyph-name="uni04D1" unicode="&#x4d1;" horiz-adv-x="512" 
 />
    <glyph glyph-name="uni04D2" unicode="&#x4d2;" horiz-adv-x="512" 
 />
    <glyph glyph-name="uni04D3" unicode="&#x4d3;" horiz-adv-x="512" 
 />
    <glyph glyph-name="uni04D4" unicode="&#x4d4;" horiz-adv-x="512" 
 />
    <glyph glyph-name="uni04D5" unicode="&#x4d5;" horiz-adv-x="512" 
 />
    <glyph glyph-name="uni04D6" unicode="&#x4d6;" horiz-adv-x="512" 
 />
    <glyph glyph-name="uni04D7" unicode="&#x4d7;" horiz-adv-x="512" 
 />
    <glyph glyph-name="uni04D8" unicode="&#x4d8;" horiz-adv-x="512" 
 />
    <glyph glyph-name="uni04D9" unicode="&#x4d9;" horiz-adv-x="512" 
 />
    <glyph glyph-name="uni04DA" unicode="&#x4da;" horiz-adv-x="512" 
 />
    <glyph glyph-name="uni04DB" unicode="&#x4db;" horiz-adv-x="512" 
 />
    <glyph glyph-name="uni04DC" unicode="&#x4dc;" horiz-adv-x="512" 
 />
    <glyph glyph-name="uni04DD" unicode="&#x4dd;" horiz-adv-x="512" 
 />
    <glyph glyph-name="uni04DE" unicode="&#x4de;" horiz-adv-x="512" 
 />
    <glyph glyph-name="uni04DF" unicode="&#x4df;" horiz-adv-x="512" 
 />
    <glyph glyph-name="uni04E0" unicode="&#x4e0;" horiz-adv-x="512" 
 />
    <glyph glyph-name="uni04E1" unicode="&#x4e1;" horiz-adv-x="512" 
 />
    <glyph glyph-name="uni04E2" unicode="&#x4e2;" horiz-adv-x="512" 
 />
    <glyph glyph-name="uni04E3" unicode="&#x4e3;" horiz-adv-x="512" 
 />
    <glyph glyph-name="uni04E4" unicode="&#x4e4;" horiz-adv-x="512" 
 />
    <glyph glyph-name="uni04E5" unicode="&#x4e5;" horiz-adv-x="512" 
 />
    <glyph glyph-name="uni04E6" unicode="&#x4e6;" horiz-adv-x="512" 
 />
    <glyph glyph-name="uni04E7" unicode="&#x4e7;" horiz-adv-x="512" 
 />
    <glyph glyph-name="uni04E8" unicode="&#x4e8;" horiz-adv-x="512" 
 />
    <glyph glyph-name="uni04E9" unicode="&#x4e9;" horiz-adv-x="512" 
 />
    <glyph glyph-name="uni04EA" unicode="&#x4ea;" horiz-adv-x="512" 
 />
    <glyph glyph-name="uni04EB" unicode="&#x4eb;" horiz-adv-x="512" 
 />
    <glyph glyph-name="uni04EE" unicode="&#x4ee;" horiz-adv-x="512" 
 />
    <glyph glyph-name="uni04EF" unicode="&#x4ef;" horiz-adv-x="512" 
 />
    <glyph glyph-name="uni04F0" unicode="&#x4f0;" horiz-adv-x="512" 
 />
    <glyph glyph-name="uni04F1" unicode="&#x4f1;" horiz-adv-x="512" 
 />
    <glyph glyph-name="uni04F2" unicode="&#x4f2;" horiz-adv-x="512" 
 />
    <glyph glyph-name="uni04F3" unicode="&#x4f3;" horiz-adv-x="512" 
 />
    <glyph glyph-name="uni04F4" unicode="&#x4f4;" horiz-adv-x="512" 
 />
    <glyph glyph-name="uni04F5" unicode="&#x4f5;" horiz-adv-x="512" 
 />
    <glyph glyph-name="uni04F8" unicode="&#x4f8;" horiz-adv-x="512" 
 />
    <glyph glyph-name="uni04F9" unicode="&#x4f9;" horiz-adv-x="512" 
 />
    <glyph glyph-name="Wgrave" unicode="&#x1e80;" horiz-adv-x="512" 
 />
    <glyph glyph-name="wgrave" unicode="&#x1e81;" horiz-adv-x="512" 
 />
    <glyph glyph-name="Wacute" unicode="&#x1e82;" horiz-adv-x="512" 
 />
    <glyph glyph-name="wacute" unicode="&#x1e83;" horiz-adv-x="512" 
 />
    <glyph glyph-name="Wdieresis" unicode="&#x1e84;" horiz-adv-x="512" 
 />
    <glyph glyph-name="wdieresis" unicode="&#x1e85;" horiz-adv-x="512" 
 />
    <glyph glyph-name="Ygrave" unicode="&#x1ef2;" horiz-adv-x="512" 
 />
    <glyph glyph-name="ygrave" unicode="&#x1ef3;" horiz-adv-x="512" 
 />
    <glyph glyph-name="uni2000" unicode="&#x2000;" 
 />
    <glyph glyph-name="uni2001" unicode="&#x2001;" 
 />
    <glyph glyph-name="uni2002" unicode="&#x2002;" 
 />
    <glyph glyph-name="uni2003" unicode="&#x2003;" 
 />
    <glyph glyph-name="uni2004" unicode="&#x2004;" 
 />
    <glyph glyph-name="uni2005" unicode="&#x2005;" 
 />
    <glyph glyph-name="uni2006" unicode="&#x2006;" 
 />
    <glyph glyph-name="uni2007" unicode="&#x2007;" 
 />
    <glyph glyph-name="uni2008" unicode="&#x2008;" 
 />
    <glyph glyph-name="uni2009" unicode="&#x2009;" 
 />
    <glyph glyph-name="uni200A" unicode="&#x200a;" 
 />
    <glyph glyph-name="uni200B" unicode="&#x200b;" horiz-adv-x="512" 
 />
    <glyph glyph-name="uni200C" unicode="&#x200c;" horiz-adv-x="512" 
 />
    <glyph glyph-name="uni200D" unicode="&#x200d;" horiz-adv-x="512" 
 />
    <glyph glyph-name="uni200E" unicode="&#x200e;" horiz-adv-x="512" 
 />
    <glyph glyph-name="uni200F" unicode="&#x200f;" horiz-adv-x="512" 
 />
    <glyph glyph-name="uni2010" unicode="&#x2010;" 
d="M591 221q-32 2 -65 5t-67 1l-52 -2q-16 2 -28 12q-12 14 -10 36l10 20q34 16 74 12h88q24 -6 51 -4t49 -10q12 -14 10 -36l-10 -20q-22 -14 -50 -14z" />
    <glyph glyph-name="uni2011" unicode="&#x2011;" 
 />
    <glyph glyph-name="figuredash" unicode="&#x2012;" 
 />
    <glyph glyph-name="endash" unicode="&#x2013;" 
 />
    <glyph glyph-name="emdash" unicode="&#x2014;" 
 />
    <glyph glyph-name="uni2015" unicode="&#x2015;" 
d="M351 225l-2 2h-127l-2 2h-162l-42 -2l-14 6l-2 62q24 12 52 12h176l2 -2h127l2 -2h108l84 6h168l2 -2h141l38 4h80q22 0 42 -10l2 -62q-14 -10 -32 -10q-42 6 -86 4l-36 -4h-157l-2 2h-154l-84 -6h-122z" />
    <glyph glyph-name="underscoredbl" unicode="&#x2017;" 
 />
    <glyph glyph-name="quoteleft" unicode="&#x2018;" 
d="M838 563q-20 4 -36 20q-22 30 -18 71q14 46 37 88t53 80q26 26 62 28q14 -6 20 -20v-16q-26 -20 -47 -43t-35 -53v-6q22 -2 38 -16q28 -28 22 -70l-20 -39q-32 -26 -76 -24z" />
    <glyph glyph-name="quoteright" unicode="&#x2019;" 
d="M108 551l-22 12q-8 10 -6 26l20 22h4v4q20 25 34 53q-32 6 -54 32q-20 26 -20 60q6 36 32 64q34 32 86 24q22 -4 38 -18v-4h4v-4h4q24 -32 20 -78q-14 -32 -26 -64q-20 -10 -28 -30q-18 -43 -52 -81q-14 -14 -34 -18z" />
    <glyph glyph-name="quotesinglbase" unicode="&#x201a;" 
 />
    <glyph glyph-name="quotereversed" unicode="&#x201b;" 
 />
    <glyph glyph-name="quotedblleft" unicode="&#x201c;" 
d="M846 559q-24 4 -44 18v4h-4l-6 6v4h-4q-18 22 -14 55q24 42 48 85t54 83l8 8q16 18 42 16q14 -6 20 -20v-16q-20 -20 -38 -41t-26 -47q20 -4 36 -18q24 -28 20 -66q-4 -23 -18 -41l-8 -8q-28 -24 -66 -22zM651 561q-30 6 -52 32q-14 18 -14 43q10 44 28 85t52 75h4l24 28
q16 16 40 12q14 -6 20 -20v-16q-20 -18 -41 -39t-33 -47q28 -2 48 -20q18 -20 14 -50q4 -35 -16 -61q-32 -24 -74 -22z" />
    <glyph glyph-name="quotedblright" unicode="&#x201d;" 
d="M108 545l-22 12q-8 10 -6 26q18 20 35 41.5t27 45.5q-18 2 -32 14q-24 36 -20 82q4 32 24 58q30 24 74 18l24 -12l6 -6q30 -38 26 -90q-8 -26 -20 -52l-18 -8q-8 -32 -26 -59.5t-42 -53.5q-12 -14 -30 -16zM305 551l-22 12q-8 10 -6 26q34 32 64 71v6q-22 2 -36 20
q-26 34 -22 80q4 30 24 52q36 28 88 20l38 -18v-4h4q26 -38 18 -88l-12 -24l-10 -10l-16 -8q-10 -32 -30 -59.5t-44 -53.5q-16 -16 -38 -22z" />
    <glyph glyph-name="quotedblbase" unicode="&#x201e;" 
 />
    <glyph glyph-name="uni201F" unicode="&#x201f;" 
 />
    <glyph glyph-name="dagger" unicode="&#x2020;" 
d="M537 -96q-18 6 -40 4l-6 -2q-16 2 -28 12q-10 16 -14 36v118q4 43 6 85t2 84q-10 26 -17 52t-17 52l28 124h-4q-38 -4 -76 -9t-76 -11l-20 10q-12 16 -10 38q0 46 14 86l18 10l2 4q16 12 38 10q28 -12 57 -17t61 -7v6q-6 43 -16 83t-8 84q2 16 12 28q24 16 58 10
q44 -12 90 -24q12 -16 10 -38q-14 -36 -18 -75.5t-6 -79.5h6q40 10 81 18t83 14l20 -10q15 -20 11 -48q0 -44 -15 -84q-14 -12 -36 -10q-34 12 -71 15t-75 5v-4q8 -32 17 -64t11 -68l-26 -44v-122l-4 -38v-99l4 -18v-86l-10 -20q-14 -12 -36 -10z" />
    <glyph glyph-name="daggerdbl" unicode="&#x2021;" 
d="M533 -90q-40 -4 -72 12q-14 20 -14 47v53l4 36v143l-2 6h-4l-76 -16t-80 -8l-20 10q-12 24 -13.5 54t-3.5 58q2 16 13 28q18 14 42 10q36 -10 75 -12t77 -6v10q-16 34 -24 70l16 64h-10q-38 -4 -75 -13t-73 -17l-20 10q-14 24 -13 54t-3 58q2 16 12 28q16 12 38 10
q28 -14 61 -15t67 -1l14 2v59l-6 112q2 16 12 28q26 16 58 12q42 4 74 -14q12 -14 10 -36q-10 -38 -18 -77t-10 -82h12q38 8 77 13t79 9l20 -10l10 -20v-108l-10 -20q-16 -12 -38 -10q-28 12 -61 15t-65 7v-8q14 -32 14 -68l-28 -62h12l160 20l21 -10q16 -24 10 -56
q0 -40 -15 -74q-16 -10 -34 -12q-34 12 -72 15t-76 5v-147l-2 -20l6 -82q-2 -24 -14 -42q-18 -12 -42 -12z" />
    <glyph glyph-name="bullet" unicode="&#x2022;" 
 />
    <glyph glyph-name="uni2023" unicode="&#x2023;" 
 />
    <glyph glyph-name="onedotenleader" unicode="&#x2024;" 
 />
    <glyph glyph-name="twodotenleader" unicode="&#x2025;" 
d="M776 307q-29 4 -53 20q-14 18 -14 40q4 36 30 62q22 18 53 12q24 -4 42 -24q18 -22 14 -52q-6 -24 -24 -44q-20 -16 -48 -14zM246 309q-22 4 -40 18q-16 20 -14 46q2 32 28 54q22 16 51 12q20 -4 34 -18q22 -26 20 -64l-16 -30q-26 -20 -63 -18z" />
    <glyph glyph-name="ellipsis" unicode="&#x2026;" 
d="M168 299q-30 4 -54 20q-14 20 -12 46q6 28 22 50q24 18 56 12l32 -18l2 -6l6 -2q20 -22 14 -54l-14 -28q-22 -18 -52 -20zM501 299q-24 2 -44 18q-16 20 -14 50q4 22 16 42q22 30 58 30q24 -4 42 -20q18 -24 12 -56q0 -26 -18 -46q-22 -20 -52 -18zM846 305q-26 4 -46 26
q-16 20 -14 46q4 26 20 46q28 24 66 22l36 -20q24 -22 20 -56l-22 -44q-24 -22 -60 -20z" />
    <glyph glyph-name="uni2027" unicode="&#x2027;" 
 />
    <glyph glyph-name="uni2028" unicode="&#x2028;" 
 />
    <glyph glyph-name="uni2029" unicode="&#x2029;" horiz-adv-x="512" 
 />
    <glyph glyph-name="uni202A" unicode="&#x202a;" horiz-adv-x="512" 
 />
    <glyph glyph-name="uni202B" unicode="&#x202b;" horiz-adv-x="512" 
 />
    <glyph glyph-name="uni202C" unicode="&#x202c;" horiz-adv-x="512" 
 />
    <glyph glyph-name="uni202D" unicode="&#x202d;" horiz-adv-x="512" 
 />
    <glyph glyph-name="uni202E" unicode="&#x202e;" horiz-adv-x="512" 
 />
    <glyph glyph-name="perthousand" unicode="&#x2030;" 
d="M162 -14q-16 2 -28 12q-12 14 -10 36l10 20h4q72 173 161.5 338t199.5 318q16 14 38 12l20 -10q12 -14 10 -36l-10 -20q-34 -43 -62 -90t-60 -91q-66 -116 -125.5 -236t-115.5 -241q-14 -10 -32 -12zM459 -8q-32 4 -56 28q-22 28 -30 63.5t-6 73.5q2 56 15 106t47 92
l14 14h4v4l14 16q22 16 45 31t53 11q22 -6 42 -20l12 -10q30 -38 38 -84v-86q-6 -52 -25 -97.5t-49 -87.5l-6 -6l-38 -30q-32 -20 -74 -18zM761 -4q-38 4 -64 36q-18 30 -22 68v95q4 46 21 87t49 77l31 30q26 20 54 35t64 9q24 -6 44 -20l18 -20q18 -26 28 -57t8 -65
q-2 -56 -18 -105t-48 -94h-4l-12 -20l-6 -6l-42 -30q-22 -10 -47 -16t-54 -4zM483 74l24 14l28 37q24 40 33 86t5 96q-4 20 -18 38l-8 2q-18 -4 -34 -16l-6 -12h-4l-4 -6l-26 -30q-18 -36 -23 -77t-5 -85l12 -45l16 -6zM818 84l24 12l2 4l6 6l16 21h4q24 38 34 80t10 90
q-6 30 -28 54l-10 2q-24 -6 -44 -20l-2 -4l-12 -12l-20 -22q-16 -16 -26 -36q-17 -34 -18 -72t-1 -79l8 -30q17 -6 35 -4zM142 297q-32 4 -60 24q-24 28 -38 59t-12 69q4 64 27 120.5t65 104.5l6 6q22 20 48 31t58 7q33 -8 61 -28q20 -28 30 -62.5t6 -72.5q-4 -50 -19 -97
t-43 -87h-4l-2 -6h-4l-7 -12l-18 -16q-22 -14 -44 -26t-50 -14zM152 379q24 10 44 28l8 12l14 16q20 36 28 77t8 87l-14 33l-32 8l-14 -12l-12 -7l-4 -10l-6 -6h-4q-26 -40 -42 -83t-16 -93l16 -40h4l8 -10l12 -2z" />
    <glyph glyph-name="uni2031" unicode="&#x2031;" 
 />
    <glyph glyph-name="minute" unicode="&#x2032;" 
d="M122 545l-20 10q-10 16 -12 34q24 63 54 123t68 118q14 12 36 10l21 -10q12 -16 10 -38q-35 -56 -65 -116.5t-56 -120.5q-14 -12 -36 -10z" />
    <glyph glyph-name="second" unicode="&#x2033;" 
d="M319 549l-20 10q-12 16 -12 38q26 61 62 117t72 114q14 12 36 10l20 -10q12 -16 10 -38q-34 -58 -70 -114.5t-62 -116.5q-14 -12 -36 -10zM128 557l-20 10q-12 16 -10 38q22 59 52 113t66 104q14 12 36 10l21 -10q12 -14 10 -36q-35 -52 -65 -107.5t-54 -111.5
q-14 -12 -36 -10z" />
    <glyph glyph-name="uni2034" unicode="&#x2034;" 
 />
    <glyph glyph-name="uni2035" unicode="&#x2035;" 
 />
    <glyph glyph-name="uni2036" unicode="&#x2036;" 
 />
    <glyph glyph-name="uni2037" unicode="&#x2037;" 
 />
    <glyph glyph-name="uni2038" unicode="&#x2038;" 
 />
    <glyph glyph-name="guilsinglleft" unicode="&#x2039;" 
 />
    <glyph glyph-name="guilsinglright" unicode="&#x203a;" 
 />
    <glyph glyph-name="uni203B" unicode="&#x203b;" 
d="M892 -56l-20 10l-40 36l-6 6v4l-22 14l-2 6l-45 34v4h-4l-18 26l-6 2v4l-6 4l-48 47v4q-32 24 -64 50l-70 88h-4v4h-4v4l-24 14l-8 -4v-4l-32 -30l-16 -16h-4v-4l-6 -6l-12 -12h-4v-4l-10 -4l-2 -6l-20 -12v-4l-18 -16h-4l-2 -6l-6 -2l-2 -6h-4q-20 -32 -46 -63l-12 -14
h-4l-4 -8l-10 -10h-4l-4 -6l-39 -40h-4l-12 -20l-16 -14h-4v-4h-4l-6 -10l-22 -22q-14 -12 -36 -10l-20 10q-12 14 -10 36q10 24 32 44l6 2l4 8l30 32l10 10h4v4l32 33l12 12h4v4h4l14 20h5l16 26l6 2l2 6h4l20 30l6 6h4l2 6l6 2v4l50 42l78 80l-34 38v4h-4l-4 10h-4v4
l-30 24l-6 6q-38 44 -79.5 86t-83.5 80v4l-14 9q-16 22 -32 42t-38 38q-12 14 -10 36l10 20q14 12 36 10q26 -12 48 -34l22 -28v-4h4q12 -22 33 -36v-4l8 -4l62 -59l14 -14v-4h4v-4h4v-4h4l10 -18h4l4 -10l6 -4l14 -12v-4l6 -2v-4h4v-4h4v-4h4l6 -6l4 -10l6 -4l14 -10v-4h4
v-4h4v-4l8 -4l10 -16h4l12 -12l10 -12l10 -14h6l50 50l6 6l6 6l56 46v4h4l16 22h4l4 10l44 46h4v4h4l2 6l6 2v5l6 6h4l79 98l30 32q16 16 40 12l20 -10q12 -16 10 -38q-12 -26 -34 -46q-26 -20 -42 -48l-22 -27h-4l-8 -14l-16 -18h-4l-4 -8l-6 -2l-7 -10l-32 -34l-8 -8h-4
l-14 -22h-4v-4h-4v-4h-4l-8 -12l-6 -2l-4 -8l-16 -10v-4h-4v-4l-10 -4v-4l-6 -6l-24 -24h-4l-2 -6h-4l-2 -6h-4v-4l-12 -10l-18 -18l2 -6l24 -18l2 -6h4l6 -6v-4h4l4 -10h4l24 -36l6 -2l22 -24q24 -20 48 -43t49 -45l6 -6v-4h4v-4l6 -2v-4l6 -4l10 -10l4 -10l8 -4l38 -33v-4
l6 -2v-4h4l22 -18v-4l6 -4q28 -16 46 -44l2 -26l-10 -20q-14 -12 -36 -10zM505 -38q-24 4 -42 20l-20 26l-4 26q4 26 20 46q26 24 60 26l44 -24q24 -26 18 -64q-6 -22 -22 -40q-22 -18 -54 -16zM834 293q-32 6 -56 26q-17 20 -15 46q7 28 31 50q26 24 60 24l42 -24
q26 -28 20 -68q-4 -18 -16 -32q-28 -22 -66 -22zM152 295q-26 4 -46 22q-18 22 -14 52q6 28 26 50q24 20 56 18q20 -6 38 -18q20 -26 14 -64q-2 -22 -16 -40h-4l-4 -6q-22 -16 -50 -14zM507 619q-28 4 -48 23l-2 6h-4q-14 20 -14 44q6 32 28 58q20 20 48 16q30 -4 52 -22
q20 -28 14 -68l-22 -40q-22 -19 -52 -17z" />
    <glyph glyph-name="exclamdbl" unicode="&#x203c;" 
 />
    <glyph glyph-name="uni203D" unicode="&#x203d;" 
 />
    <glyph glyph-name="uni203E" unicode="&#x203e;" 
 />
    <glyph glyph-name="uni203F" unicode="&#x203f;" 
 />
    <glyph glyph-name="uni2040" unicode="&#x2040;" 
 />
    <glyph glyph-name="uni2041" unicode="&#x2041;" 
 />
    <glyph glyph-name="uni2042" unicode="&#x2042;" 
 />
    <glyph glyph-name="uni2043" unicode="&#x2043;" 
 />
    <glyph glyph-name="fraction" unicode="&#x2044;" 
 />
    <glyph glyph-name="uni2045" unicode="&#x2045;" 
 />
    <glyph glyph-name="uni2046" unicode="&#x2046;" 
 />
    <glyph glyph-name="uni2070" unicode="&#x2070;" horiz-adv-x="512" 
 />
    <glyph glyph-name="uni2074" unicode="&#x2074;" horiz-adv-x="512" 
 />
    <glyph glyph-name="uni2075" unicode="&#x2075;" horiz-adv-x="512" 
 />
    <glyph glyph-name="uni2076" unicode="&#x2076;" horiz-adv-x="512" 
 />
    <glyph glyph-name="uni2077" unicode="&#x2077;" horiz-adv-x="512" 
 />
    <glyph glyph-name="uni2078" unicode="&#x2078;" horiz-adv-x="512" 
 />
    <glyph glyph-name="uni2079" unicode="&#x2079;" horiz-adv-x="512" 
 />
    <glyph glyph-name="uni207A" unicode="&#x207a;" horiz-adv-x="512" 
 />
    <glyph glyph-name="uni207B" unicode="&#x207b;" horiz-adv-x="512" 
 />
    <glyph glyph-name="uni207C" unicode="&#x207c;" horiz-adv-x="512" 
 />
    <glyph glyph-name="uni207D" unicode="&#x207d;" horiz-adv-x="512" 
 />
    <glyph glyph-name="uni207E" unicode="&#x207e;" horiz-adv-x="512" 
 />
    <glyph glyph-name="uni207F" unicode="&#x207f;" horiz-adv-x="512" 
 />
    <glyph glyph-name="uni2080" unicode="&#x2080;" horiz-adv-x="512" 
 />
    <glyph glyph-name="uni2081" unicode="&#x2081;" horiz-adv-x="512" 
 />
    <glyph glyph-name="uni2082" unicode="&#x2082;" horiz-adv-x="512" 
 />
    <glyph glyph-name="uni2083" unicode="&#x2083;" horiz-adv-x="512" 
 />
    <glyph glyph-name="uni2084" unicode="&#x2084;" horiz-adv-x="512" 
 />
    <glyph glyph-name="uni2085" unicode="&#x2085;" horiz-adv-x="512" 
 />
    <glyph glyph-name="uni2086" unicode="&#x2086;" horiz-adv-x="512" 
 />
    <glyph glyph-name="uni2087" unicode="&#x2087;" horiz-adv-x="512" 
 />
    <glyph glyph-name="uni2088" unicode="&#x2088;" horiz-adv-x="512" 
 />
    <glyph glyph-name="uni2089" unicode="&#x2089;" horiz-adv-x="512" 
 />
    <glyph glyph-name="uni208A" unicode="&#x208a;" horiz-adv-x="512" 
 />
    <glyph glyph-name="uni208B" unicode="&#x208b;" horiz-adv-x="512" 
 />
    <glyph glyph-name="uni208C" unicode="&#x208c;" horiz-adv-x="512" 
 />
    <glyph glyph-name="uni208D" unicode="&#x208d;" horiz-adv-x="512" 
 />
    <glyph glyph-name="uni208E" unicode="&#x208e;" horiz-adv-x="512" 
 />
    <glyph glyph-name="uni20A0" unicode="&#x20a0;" horiz-adv-x="512" 
 />
    <glyph glyph-name="colonmonetary" unicode="&#x20a1;" horiz-adv-x="512" 
 />
    <glyph glyph-name="uni20A2" unicode="&#x20a2;" horiz-adv-x="512" 
 />
    <glyph glyph-name="franc" unicode="&#x20a3;" horiz-adv-x="512" 
 />
    <glyph glyph-name="lira" unicode="&#x20a4;" horiz-adv-x="512" 
 />
    <glyph glyph-name="uni20A5" unicode="&#x20a5;" horiz-adv-x="512" 
 />
    <glyph glyph-name="uni20A6" unicode="&#x20a6;" horiz-adv-x="512" 
 />
    <glyph glyph-name="peseta" unicode="&#x20a7;" horiz-adv-x="512" 
 />
    <glyph glyph-name="uni20A8" unicode="&#x20a8;" horiz-adv-x="512" 
 />
    <glyph glyph-name="uni20A9" unicode="&#x20a9;" horiz-adv-x="512" 
 />
    <glyph glyph-name="uni20AA" unicode="&#x20aa;" horiz-adv-x="512" 
 />
    <glyph glyph-name="uni2100" unicode="&#x2100;" 
 />
    <glyph glyph-name="uni2101" unicode="&#x2101;" 
 />
    <glyph glyph-name="uni2102" unicode="&#x2102;" 
 />
    <glyph glyph-name="uni2103" unicode="&#x2103;" 
d="M587 2q-26 6 -50 16t-46 26v4h-4v4h-4v4l-28 22q-48 69 -63 149t-19 162q6 60 23 115t61 99q56 47 122 73t140 22q46 -8 89.5 -23t81.5 -41v-4l14 -11q18 -24 32 -49t10 -57l-10 -20q-14 -12 -36 -10l-20 10q-12 38 -32 72l-6 2v4q-38 20 -78.5 35t-88.5 13
q-44 -6 -82 -24t-74 -42l-2 -4h-4v-4l-10 -10q-14 -10 -22 -26q-16 -40 -24 -83t-6 -89q12 -54 22 -110t46 -100l4 -2v-4l10 -4v-4q22 -19 46 -27t54 -6q62 2 114.5 26.5t96.5 70.5q26 38 40 80q14 12 36 10l20 -10q14 -16 10 -40q-6 -26 -18 -48t-28 -44l-28 -29l-60 -44
q-51 -32 -109 -41t-120 -9zM186 501q-44 10 -78 44l-36 44q-10 34 -6 75q8 34 18 67t38 59q28 22 60 30t70 4l43 -20v-4l18 -10l18 -20l8 -16h4q18 -22 25 -50t5 -60q-14 -43 -40 -79l-8 -8l-10 -4v-4l-36 -22l-2 -4q-39 -28 -91 -22zM200 581l4 6q36 10 69 30l2 4h4
q18 27 16 59l-24 38l-4 2l-29 26h-30q-22 -6 -40 -22q-12 -22 -19 -47t-5 -54l16 -16v-4l38 -24z" />
    <glyph glyph-name="uni2104" unicode="&#x2104;" 
 />
    <glyph glyph-name="uni2105" unicode="&#x2105;" 
 />
    <glyph glyph-name="uni2106" unicode="&#x2106;" 
 />
    <glyph glyph-name="uni2107" unicode="&#x2107;" 
 />
    <glyph glyph-name="uni2108" unicode="&#x2108;" 
 />
    <glyph glyph-name="uni2109" unicode="&#x2109;" 
 />
    <glyph glyph-name="uni210A" unicode="&#x210a;" 
 />
    <glyph glyph-name="uni210B" unicode="&#x210b;" 
 />
    <glyph glyph-name="uni210C" unicode="&#x210c;" 
 />
    <glyph glyph-name="uni210D" unicode="&#x210d;" 
 />
    <glyph glyph-name="uni210E" unicode="&#x210e;" 
 />
    <glyph glyph-name="uni210F" unicode="&#x210f;" 
 />
    <glyph glyph-name="uni2110" unicode="&#x2110;" 
 />
    <glyph glyph-name="Ifraktur" unicode="&#x2111;" 
 />
    <glyph glyph-name="uni2112" unicode="&#x2112;" 
 />
    <glyph glyph-name="uni2113" unicode="&#x2113;" 
 />
    <glyph glyph-name="uni2114" unicode="&#x2114;" 
 />
    <glyph glyph-name="uni2115" unicode="&#x2115;" 
 />
    <glyph glyph-name="uni2116" unicode="&#x2116;" 
d="M908 -16q-24 4 -42 20q-18 22 -16 52q8 34 30 63q24 16 56 14l30 -16l10 -11q22 -22 18 -54q-2 -24 -16 -42q-30 -26 -70 -26zM667 4q-28 6 -54 16t-48 28q-26 30 -39 66.5t-19 76.5v94q4 64 17 125t47 115l6 6q24 16 48 31t56 11q36 -2 62 -24v-4l10 -4v-4h4l6 -6v-4h4
q41 -60 61 -128t14 -144q-6 -54 -25 -102.5t-47 -92.5h-5l-12 -20l-12 -6v-4q-32 -26 -74 -26zM98 12l-20 10q-12 58 -16 119.5t-6 123.5v148q6 26 6 53t2 53v111q0 36 -5 70t-7 68l10 20q18 18 44 16l20 -10l10 -18h4q70 -132 125.5 -270.5t117.5 -272.5h4v104l-4 36v120
l4 34v90l-2 2v83l-2 66q2 16 12 28q14 12 36 10l20 -10q16 -40 12 -86v-82l2 -2v-107l-4 -34v-102l4 -38v-124l2 -2v-80q10 -43 12 -89l-10 -20q-24 -16 -54 -16l-20 10q-72 137 -131.5 279t-117.5 286h-4q0 -46 -1 -93t-7 -91v-132q2 -38 3 -76t7 -74v-81l-10 -20
q-14 -12 -36 -10zM689 90l8 4q34 49 52 104t14 119q-2 44 -18 82t-36 74q-16 22 -42 22q-30 -14 -48 -42q-22 -58 -28 -122t-6 -132q4 -26 12 -51t28 -46q24 -16 52 -18z" />
    <glyph glyph-name="uni2117" unicode="&#x2117;" 
 />
    <glyph glyph-name="weierstrass" unicode="&#x2118;" 
 />
    <glyph glyph-name="uni2119" unicode="&#x2119;" 
 />
    <glyph glyph-name="uni211A" unicode="&#x211a;" 
 />
    <glyph glyph-name="uni211B" unicode="&#x211b;" 
 />
    <glyph glyph-name="Rfraktur" unicode="&#x211c;" 
 />
    <glyph glyph-name="uni211D" unicode="&#x211d;" 
 />
    <glyph glyph-name="prescription" unicode="&#x211e;" 
 />
    <glyph glyph-name="uni211F" unicode="&#x211f;" 
 />
    <glyph glyph-name="uni2120" unicode="&#x2120;" 
 />
    <glyph glyph-name="uni2121" unicode="&#x2121;" 
d="M218 -2l-20 10q-18 60 -22 126.5t-6 132.5l4 52l-2 2v108q4 42 5 85t3 85l-2 2v117h-64q-28 -6 -60 -4q-16 2 -28 12q-12 14 -10 36l10 20q38 14 82 14h138l67 2l42 -2l36 2l20 -10q12 -16 10 -38l-10 -20q-22 -12 -49 -12h-55l-50 2v-111l2 -50l-9 -138v-92l2 -46
l-4 -70q2 -48 8.5 -93.5t8.5 -91.5l-11 -20q-14 -12 -36 -10zM715 -2q-16 2 -28 12q-18 28 -12 64l4 43v92l-2 2v90q8 68 10 138t18 136q14 12 36 10l20 -10q17 -26 11 -60q-2 -74 -9.5 -147t-7.5 -149l2 -2v-109l-2 -28h29q28 4 56 5t56 1q32 -2 60 -16q14 -16 12 -38
l-10 -20q-20 -14 -46 -10q-30 8 -64 6q-32 -4 -66.5 -5t-66.5 -5zM373 2l-20 10q-10 12 -12 28v195l-2 52l4 80v118l-4 44q2 16 12 28q46 16 98 16t104 2q46 -2 86 -16q12 -14 10 -36l-10 -20q-24 -16 -56 -12q-44 8 -92 6l-70 -4v-134l-2 -22h16q40 6 82 10t84 4l20 -10
q12 -14 10 -36l-10 -20q-48 -14 -100 -17t-104 -9v-14l2 -2v-159l36 -2h154q20 0 36 -12q12 -16 10 -38l-10 -20q-18 -14 -44 -10l-2 2h-152l-46 4q-12 -8 -28 -6z" />
    <glyph glyph-name="trademark" unicode="&#x2122;" 
 />
    <glyph glyph-name="uni2123" unicode="&#x2123;" 
 />
    <glyph glyph-name="uni2124" unicode="&#x2124;" 
 />
    <glyph glyph-name="uni2125" unicode="&#x2125;" 
 />
    <glyph glyph-name="Omega" unicode="&#x2126;" 
 />
    <glyph glyph-name="uni2127" unicode="&#x2127;" 
 />
    <glyph glyph-name="uni2128" unicode="&#x2128;" 
 />
    <glyph glyph-name="uni2129" unicode="&#x2129;" 
 />
    <glyph glyph-name="uni212A" unicode="&#x212a;" 
 />
    <glyph glyph-name="uni212B" unicode="&#x212b;" 
d="M188 10l-20 10q-12 14 -10 36q72 139 140.5 280t152.5 275l-36 25q-16 22 -23 48t-5 56q4 44 30 80l30 22q44 14 98 10q30 -12 56 -30q16 -22 34 -42q18 -44 12 -98q-10 -24 -26 -46l-34 -29h-4v-8q48 -100 92 -203t115 -193h4q26 -38 51 -76.5t37 -82.5l-10 -20
q-14 -12 -36 -10l-26 16q-24 44 -53.5 86.5t-59.5 84.5q-32 16 -71 17t-79 1q-58 -6 -117 -13t-115 -19q-22 -42 -43.5 -83.5t-45.5 -81.5q-16 -14 -38 -12zM633 295v4q-30 64 -57 129t-59 129h-6q-42 -68 -80 -139t-74 -143h10q42 6 86 12t88 10h82zM553 678v4h4
q18 20 12 48l-4 14l-10 6l-10 14q-22 16 -54 10l-14 -8q-16 -26 -12 -60l8 -18q22 -18 50 -20z" />
    <glyph glyph-name="uni212C" unicode="&#x212c;" 
 />
    <glyph glyph-name="uni212D" unicode="&#x212d;" 
 />
    <glyph glyph-name="estimated" unicode="&#x212e;" 
 />
    <glyph glyph-name="uni212F" unicode="&#x212f;" 
 />
    <glyph glyph-name="uni2130" unicode="&#x2130;" 
 />
    <glyph glyph-name="uni2131" unicode="&#x2131;" 
 />
    <glyph glyph-name="uni2132" unicode="&#x2132;" 
 />
    <glyph glyph-name="uni2133" unicode="&#x2133;" 
 />
    <glyph glyph-name="uni2134" unicode="&#x2134;" 
 />
    <glyph glyph-name="aleph" unicode="&#x2135;" 
 />
    <glyph glyph-name="uni2136" unicode="&#x2136;" 
 />
    <glyph glyph-name="uni2137" unicode="&#x2137;" 
 />
    <glyph glyph-name="uni2138" unicode="&#x2138;" 
 />
    <glyph glyph-name="onethird" unicode="&#x2153;" horiz-adv-x="512" 
 />
    <glyph glyph-name="twothirds" unicode="&#x2154;" horiz-adv-x="512" 
 />
    <glyph glyph-name="uni2155" unicode="&#x2155;" horiz-adv-x="512" 
 />
    <glyph glyph-name="uni2156" unicode="&#x2156;" horiz-adv-x="512" 
 />
    <glyph glyph-name="uni2157" unicode="&#x2157;" horiz-adv-x="512" 
 />
    <glyph glyph-name="uni2158" unicode="&#x2158;" horiz-adv-x="512" 
 />
    <glyph glyph-name="uni2159" unicode="&#x2159;" horiz-adv-x="512" 
 />
    <glyph glyph-name="uni215A" unicode="&#x215a;" horiz-adv-x="512" 
 />
    <glyph glyph-name="oneeighth" unicode="&#x215b;" horiz-adv-x="512" 
 />
    <glyph glyph-name="threeeighths" unicode="&#x215c;" horiz-adv-x="512" 
 />
    <glyph glyph-name="fiveeighths" unicode="&#x215d;" horiz-adv-x="512" 
 />
    <glyph glyph-name="seveneighths" unicode="&#x215e;" horiz-adv-x="512" 
 />
    <glyph glyph-name="uni215F" unicode="&#x215f;" horiz-adv-x="512" 
 />
    <glyph glyph-name="uni2160" unicode="&#x2160;" 
d="M385 -4l-20 10q-12 14 -10 36l10 20q24 14 54 16t56 10l2 2v113l-2 2v118l2 2v298l-2 31h-22l-70 -2l-20 10q-12 14 -10 36l10 20q34 14 73 14h79l20 -4h112l20 -10q12 -14 10 -36l-10 -20q-14 -10 -30 -12h-84v-16l2 -2v-315l-2 -2v-102l2 -2v-117h10l54 2q34 -2 62 -16
q12 -16 10 -38l-10 -20q-18 -14 -44 -10q-30 8 -64 6q-48 0 -94 -10t-94 -12z" />
    <glyph glyph-name="uni2161" unicode="&#x2161;" 
d="M257 14q-17 2 -29 12q-12 14 -10 36l10 20q29 12 60 13t61 7l6 79v182l6 82v120l-2 2v87h-22l-68 -2q-17 2 -29 12q-12 14 -10 36l10 20q59 10 118 14t117 8l76 -8h192q27 2 45 -12q12 -14 10 -36l-10 -20q-23 -14 -51 -12l-60 2l-4 -107v-206l8 -154l-2 -60l2 -23
q34 -2 69.5 -1t65.5 -11q12 -16 10 -38l-10 -20l-20 -10h-83q-42 0 -82 5t-84 3q-24 -4 -50 -7t-52 -1l-24 2q-42 -2 -82 -7t-82 -7zM603 113v6l-2 76l2 24l-8 116v222l4 99q-40 -2 -77 3t-75 5l-10 -2v-87l2 -2v-136l-6 -82v-182q-6 -32 -6 -67l62 -2q28 4 56 7.5t58 1.5z
" />
    <glyph glyph-name="uni2162" unicode="&#x2162;" 
d="M872 10l-30 4h-153l-146 12h-90l-76 -6h-94q-33 -6 -68 -6t-69 -2l-20 10q-12 14 -10 36l10 20q22 14 51 14h57q-2 39 2 75l8 72v98l2 2v108l2 2v90l2 2v89l-2 22h-12l-2 -2h-80q-16 2 -28 12q-12 14 -10 36l10 20l20 10h82l91 10h108l2 -2h176l2 -2h156l63 -2l66 6
l20 -10q12 -14 10 -36l-10 -20q-26 -12 -55 -15t-59 -3v-12l4 -25v-162l-4 -24v-242l-4 -62l2 -35q34 0 68 -1t64 -13q12 -14 10 -36l-10 -20q-24 -16 -56 -12zM717 92v23l-2 36l4 46v242l4 24v146l-6 47h-118l-40 2v-91l-2 -2v-200l6 -94v-106l-6 -48l2 -15zM479 104v27
l6 42v88l-6 96v218l2 2v81l-62 2h-92v-20l2 -2v-105l-2 -2v-90l-2 -2v-108l-2 -2v-98q-2 -32 -7 -64t-3 -69h58q26 4 54 4t54 2z" />
    <glyph glyph-name="uni2163" unicode="&#x2163;" 
d="M86 0l-20 10q-12 14 -10 36l10 20q26 14 56 15t60 5v149q-8 40 -10 82t-10 82v106l6 60v89h-18l-58 -6q-16 2 -28 12q-12 14 -10 36l10 20q36 16 80 16h88l35 -2l52 2q12 -8 28 -8l200 6l20 -10q12 -14 10 -36l-10 -20q-22 -12 -49 -12t-53 -2v-6q36 -109 79 -215
t79 -216h4q34 106 72 214t83 213q-29 2 -56 6t-51 16q-12 14 -10 36l10 20q20 14 46 10q40 -10 85 -10l60 6h86l20 -10q12 -14 10 -36l-10 -20q-22 -16 -50 -13t-54 -3q-62 -151 -118.5 -305t-92.5 -313q-14 -12 -36 -10l-20 10q-48 159 -107 313t-115 311q-30 0 -56 8
l-77 -4v-95l-6 -60v-90q8 -40 10 -82t11 -82v-155q28 0 56 -2t50 -14q12 -14 10 -36l-10 -20q-16 -12 -38 -12l-30 6h-85z" />
    <glyph glyph-name="uni2164" unicode="&#x2164;" 
d="M485 6l-20 10q-58 159 -105 321t-110 321h-82q-16 2 -28 12q-12 14 -10 36l10 20l20 10h94l45 6h90q28 2 50 -12q12 -14 10 -36l-10 -20q-24 -16 -58 -12l-44 2v-4q42 -123 82 -247t72 -248h4q46 122 91 245t97 246q-26 2 -54 2t-50 12q-12 14 -10 36l10 20q24 16 58 12
q24 -4 50 -4t52 -2h121l20 -10q12 -14 10 -36l-10 -20l-22 -12h-86q-69 -151 -127 -306t-104 -312l-20 -20q-14 -12 -36 -10z" />
    <glyph glyph-name="uni2165" unicode="&#x2165;" 
d="M733 4q-38 2 -70 18q-12 14 -10 36l10 20q18 14 42 10l54 -6v26q-6 31 -4 65q6 36 6 74q-6 46 -4 94l4 40v136l-4 34v93l2 12q-36 6 -70 20v2h-4l-4 -8q-16 -12 -38 -12q-60 -153 -116 -309t-102 -313q-20 -18 -48 -16l-20 10q-64 153 -111.5 312t-105.5 316l-18 2
l-50 -4l-20 10q-12 14 -10 36l10 20q64 18 134.5 23t140.5 5l20 -10q12 -16 10 -38l-10 -20q-26 -12 -59.5 -11t-63.5 -1v-8q45 -121 82 -244t77 -243l6 -2q34 122 78 240t86 239l-52 4t-48 14q-12 14 -10 36l10 20q20 14 46 10q24 -4 51 -5t53 -3q28 8 58 8l20 -10v-2h4
l4 8q18 14 44 10q24 -4 49.5 -7t51.5 -1q38 6 78 4l20 -10q12 -14 10 -36l-10 -20q-42 -16 -92 -16q-6 -47 -4 -97l4 -34v-152l-4 -96l4 -76l-6 -70q6 -21 4 -45h24l58 4l20 -10q12 -16 10 -38l-10 -20q-48 -12 -101 -14z" />
    <glyph glyph-name="uni2166" unicode="&#x2166;" 
d="M541 18l-20 10q-12 14 -10 36l10 20q38 24 86 24v29l-2 2v130q10 64 11 130t7 130v90l-4 41l-38 6l-24 -4q-34 -163 -90 -318t-104 -310q-22 -14 -52 -10l-20 10q-45 153 -93 305t-84 307h-12l-42 -4q-16 2 -28 12q-12 14 -10 36l10 20q58 16 121 19t126 11l20 -10
q12 -16 10 -38l-10 -20q-24 -12 -51.5 -14t-55.5 -4v-6q26 -119 66.5 -234t64.5 -233h4q44 116 82 235t70 240q-26 0 -52 1t-48 13q-12 14 -10 36l10 20q26 16 60 10l64 -2l82 8q30 -6 64 -4l2 2h219l34 -2l30 2l20 -10q12 -14 10 -36l-10 -20q-34 -18 -78 -14v-12l2 -2
v-277l2 -2v-224l6 -30q46 -5 84 -23q12 -14 10 -36l-10 -20q-16 -14 -40 -10q-30 6 -61 12t-65 4q-67 -4 -134 -6t-129 -16zM804 119v14l-2 2v224l-2 2v277l-2 24h-101v-14l4 -20v-107q-6 -64 -7 -130t-11 -130v-114l2 -32h70z" />
    <glyph glyph-name="uni2167" unicode="&#x2167;" 
d="M435 10l-20 10q-12 14 -10 36l10 20q20 16 47 18t53 6q4 93 9 184t11 181v191l-32 8q-12 -12 -28 -10q-44 -143 -73 -288t-65 -290l-6 -4q0 -16 -10 -28q-16 -12 -38 -10l-20 10q-51 149 -99 301t-70 309q-32 0 -60 16q-12 14 -10 36l10 20q18 14 44 10l26 -2q34 4 67 9
t69 5l21 -10q12 -14 10 -36l-10 -20q-41 -16 -87 -18v-4q20 -113 46 -225t69 -220h4q16 112 42 221t62 216q-42 0 -76 16q-12 14 -10 36l10 20q24 16 58 10q38 -6 80 -4l26 4l22 -8q18 12 42 8l134 -6q68 2 135.5 7t135.5 5l20 -10q12 -16 10 -38l-10 -20q-30 -16 -68 -10
v-125l2 -2v-86q-2 -32 -7 -63t-3 -65q8 -30 6 -64l-4 -100l2 -55q50 0 92 -18q14 -16 12 -38l-10 -20q-16 -14 -40 -10q-34 8 -72 8t-74 4h-237q-34 -4 -69 -8t-69 -10zM824 104v43l-2 46l4 96q-10 44 -6 92q6 34 8 71t2 75l-2 2v127h-20l-32 -2l-4 -101v-108l-11 -158
l4 -24v-142l-2 -15zM683 106v4l4 19v126l-4 68l10 130v108l4 91h-6l-48 -2l-30 2v-195q-6 -86 -11 -174t-7 -177h88z" />
    <glyph glyph-name="uni2168" unicode="&#x2168;" 
d="M824 -8q-36 6 -74.5 9t-72.5 13q-12 14 -10 36l10 20q26 16 62 12l51 -6v6q-12 33 -39 59l-6 8h-4l-12 14q-30 44 -56 90t-58 90l-6 2l-30 -50h-4l-32 -56h-4q-16 -40 -40 -77t-46 -76q54 6 98 -14q12 -14 10 -36l-10 -20q-16 -10 -34 -12l-18 4h-132l-68 -4l-20 10v4
h-57q-32 -4 -63 -8t-65 -4l-20 10q-12 14 -10 36l10 20q24 14 54 14t58 6v14l-2 69l4 20v132l2 74q-10 62 -12 125t-12 126l-36 2l-32 -2q-16 2 -28 12q-12 14 -10 36l10 20q60 12 122 15t125 5q20 0 36 -12v-4h4q38 10 82 8l36 -2l42 4l20 -10q12 -14 10 -36l-10 -20
q-24 -16 -54 -14l-2 -10l30 -49l6 -2v-4h4v-4l12 -6l2 -6h4l6 -6l12 -10l52 -78l8 -2l2 4q34 44 72 88t72 89q-28 4 -58 3t-54 13q-12 14 -10 36l10 20q30 16 70 10l38 -4l67 2l2 -2h88l32 2l20 -10q12 -14 10 -36l-10 -20q-22 -14 -50 -14t-56 -2l-34 -51l-18 -22h-4
l-4 -10l-10 -12l-12 -14l-8 -8l-11 -10h-4l-4 -10q-24 -24 -40 -52q-14 -12 -24 -30l-18 -20l-6 -8l20 -26l44 -72h4q16 -24 27.5 -49t29.5 -47l12 -12v-4h4l18 -20v-4h4q26 -36 42 -77h4l12 -28h22l34 4l20 -10q12 -16 10 -38l-10 -20q-20 -14 -46 -14h-92zM357 88
q54 81 101 163t101 162q-14 24 -31 49t-37 47l-12 10v4l-22 16q-20 26 -37 55t-35 58q-20 0 -36 12v4h-4q-16 -8 -34 -8l-40 2l-25 -2v-18q8 -57 11.5 -116t11.5 -117v-88l-2 -2v-132l-4 -70l2 -21q50 6 90 -10z" />
    <glyph glyph-name="uni2169" unicode="&#x2169;" 
d="M142 2q-16 2 -28 12q-12 14 -10 36l10 20q28 12 61 11t61 9q21 41 49 77l6 2v4l12 12l6 6l22 16q30 50 68 96t68 96l-50 64l-40 50l-20 18l-10 10v4l-10 4l-2 6l-10 4l-26 40h-4l-43 57h-56l-22 -2q-16 2 -28 12q-12 14 -10 36l10 20q66 14 137.5 15t141.5 5l20 -10
q12 -14 10 -36l-10 -20q-42 -18 -92 -16v-4l18 -30h4l34 -33v-4l6 -2v-4l10 -4v-4h4v-4l6 -4l14 -12l34 -44l18 -24l8 -16h4l4 -10h4q26 30 45 61t45 61h4l10 14q28 22 44 53q-48 -4 -86 14q-12 14 -10 36l10 20q24 16 56 10l24 -2l24 4h143l30 2l20 -10q12 -14 10 -36
l-10 -20q-24 -14 -53 -14t-55 -4l-41 -57h-4v-4h-4v-4l-18 -22l-20 -20l-10 -4l-6 -12q-20 -22 -37 -48t-33 -50l-26 -32l-4 -10l26 -46h4v-4h4l10 -16h4l26 -24v-4l6 -4l28 -44l6 -2q24 -40 57.5 -72t55.5 -75l2 -16h88l20 -10q12 -14 10 -36l-10 -20l-22 -12h-96
q-49 10 -101 11t-100 15q-12 14 -10 36l10 20q30 16 68 10l46 -2v4q-22 25 -44 48t-38 49l-36 54l-10 4l-18 18v4h-4l-38 48l-14 -20q-18 -18 -30 -38l-12 -14h-4l-6 -12h-4q-12 -22 -26 -43t-30 -41l-22 -20h-4l-4 -6l-12 -14h-4v-5h-4l-8 -18h90l20 -10q12 -14 10 -36
l-10 -20q-14 -10 -30 -12h-92q-44 -2 -87.5 -6t-87.5 -4z" />
    <glyph glyph-name="uni216A" unicode="&#x216a;" horiz-adv-x="512" 
 />
    <glyph glyph-name="uni216B" unicode="&#x216b;" horiz-adv-x="512" 
 />
    <glyph glyph-name="uni216C" unicode="&#x216c;" horiz-adv-x="512" 
 />
    <glyph glyph-name="uni216D" unicode="&#x216d;" horiz-adv-x="512" 
 />
    <glyph glyph-name="uni216E" unicode="&#x216e;" horiz-adv-x="512" 
 />
    <glyph glyph-name="uni216F" unicode="&#x216f;" horiz-adv-x="512" 
 />
    <glyph glyph-name="uni2170" unicode="&#x2170;" 
d="M513 -2l-20 10q-18 30 -18 66v139l2 2v216l-8 102q2 16 12 28q14 12 36 10l20 -10q12 -28 13 -60t5 -62v-232l-2 -2v-123l6 -54l-10 -20q-14 -12 -36 -10zM503 638q-22 4 -38 18q-22 28 -18 66q2 18 14 32q22 20 54 16q28 -4 50 -26q18 -24 12 -58l-16 -28
q-24 -20 -58 -20z" />
    <glyph glyph-name="uni2171" unicode="&#x2171;" 
d="M383 0l-20 10q-18 32 -16 72v83l6 148v162l-2 56q2 16 12 28q14 12 36 10l20 -10q16 -34 12 -76v-178l-6 -215l4 -60l-10 -20q-14 -12 -36 -10zM631 0l-20 10q-10 16 -14 36v325l-2 2v92l-2 74l10 20q14 12 36 10l20 -10q18 -38 14 -86v-92l2 -2v-323l2 -26l-10 -20
q-14 -12 -36 -10zM385 634q-26 2 -46 24q-16 20 -14 48q2 24 18 42q28 22 70 16l24 -12v-4h4q22 -24 18 -58q-6 -24 -22 -44q-22 -16 -52 -12zM627 638q-22 4 -40 18v4l-6 2q-18 22 -18 52q4 24 20 42q26 22 66 16l24 -12v-4l6 -2q18 -24 12 -58l-18 -38l-8 -8
q-16 -12 -38 -12z" />
    <glyph glyph-name="uni2172" unicode="&#x2172;" 
d="M497 -12q-16 2 -28 12q-10 14 -12 32l4 60v207l4 40v122l2 2v82l10 20q14 12 36 10l20 -10q10 -14 12 -30v-80l-2 -2v-122l-4 -40v-207q4 -46 -12 -84q-14 -10 -30 -12zM757 -8l-20 10q-10 16 -14 36v211l-2 2v284q2 16 12 28q14 12 37 10l20 -10l10 -20v-286l2 -2v-209
l2 -24l-10 -20q-14 -12 -37 -10zM248 6l-20 10q-16 24 -14 54v95l4 54v124l2 2v188q2 16 12 28q14 12 37 10l20 -10l10 -20v-204l-2 -2v-122l-4 -135l2 -42l-10 -20q-14 -12 -37 -10zM263 646q-25 4 -43 20q-18 22 -16 50q2 16 14 30q24 20 59 14l28 -16q20 -24 18 -58
l-10 -20l-6 -6q-20 -14 -44 -14zM503 646q-24 4 -42 20q-18 24 -14 58q2 16 12 28q26 22 62 16l34 -16l6 -12h4q14 -20 10 -50l-12 -22q-26 -22 -60 -22zM765 648q-28 4 -52 20q-14 18 -14 40q4 26 20 48h4v4q14 12 36 10q33 2 55 -18q22 -24 16 -60l-14 -28
q-22 -18 -51 -16z" />
    <glyph glyph-name="uni2173" unicode="&#x2173;" 
d="M254 -6l-20 10q-16 30 -16 68v349l-2 2v110q2 16 12 28q14 12 37 10l20 -10l10 -20v-110l2 -2v-349l4 -56l-10 -20q-14 -12 -37 -10zM581 0l-20 10q-60 129 -97 264t-87 267l10 20q14 12 36 10l20 -10q52 -102 81 -211t67 -215l6 -2q36 110 70 220t80 216q14 12 37 10
l20 -10q12 -16 10 -38q-51 -128 -90 -257t-83 -258q-28 -14 -60 -16zM246 648q-20 4 -36 16q-16 22 -16 52q2 18 14 32q28 22 69 16l32 -18q16 -22 12 -54l-18 -32q-24 -16 -57 -12z" />
    <glyph glyph-name="uni2174" unicode="&#x2174;" 
d="M499 -4l-20 10q-54 133 -107 264t-95 267l10 20q14 12 36 10l20 -10q40 -102 81 -206t81 -206h6q40 106 78 211t96 205q14 12 36 10l20 -10q12 -16 10 -38q-66 -124 -111 -256t-105 -261q-14 -12 -36 -10z" />
    <glyph glyph-name="uni2175" unicode="&#x2175;" 
d="M741 -6l-20 10q-18 32 -14 72l6 123v332q2 16 12 28q14 12 36 10l21 -10l10 -20v-348l-6 -139l2 -28l-10 -20q-15 -12 -37 -10zM401 12l-20 10q-50 127 -92.5 255t-96.5 252l10 20q14 12 36 10l21 -10q50 -94 86 -192t66 -198h4q28 102 60 202t82 194q14 12 36 10l20 -10
q12 -16 10 -38q-58 -116 -92 -241t-76 -246q-24 -18 -54 -18zM741 644q-18 4 -34 16q-14 18 -16 42q4 26 18 46q18 20 46 18q21 -8 41 -18l18 -24l2 -38l-14 -28q-26 -18 -61 -14z" />
    <glyph glyph-name="uni2176" unicode="&#x2176;" 
d="M625 -12l-20 10q-18 38 -12 88l2 2v101l2 2v122l2 2v218q2 16 12 28q14 12 36 10l20 -10l10 -20v-234l-2 -2v-122l-2 -2v-101q4 -44 -12 -82q-14 -12 -36 -10zM820 -10l-20 10q-18 32 -12 72l6 121v220l-4 128l10 20q14 12 36 10l20 -10q14 -30 13 -67t3 -73v-236
q-4 -46 -4 -94.5t-12 -90.5q-14 -12 -36 -10zM329 2q-16 2 -28 12q-53 133 -96 267t-93 262l10 20q14 12 36 10l20 -10q50 -96 82.5 -198t68.5 -204h4q32 100 59 201t67 197q14 12 36 10l20 -10q12 -16 10 -38q-42 -124 -77 -250t-77 -251q-18 -14 -42 -18zM625 644
q-16 2 -28 12q-18 22 -18 50q4 26 16 48q20 16 46 14q18 -2 34 -14v-4h4q20 -26 14 -62l-14 -26q-22 -20 -54 -18zM820 648q-20 4 -36 18q-14 18 -17 40q3 24 17 44q26 22 64 16l24 -12l10 -10q16 -24 10 -56l-12 -22l-6 -2v-4q-24 -16 -54 -12z" />
    <glyph glyph-name="uni2177" unicode="&#x2177;" 
d="M695 -24l-20 10q-10 12 -12 28v165l2 2v130l-2 2v222q2 16 12 28q14 12 36 10l20 -10l10 -20v-224l2 -2v-144l-2 -2v-165l-10 -20q-14 -12 -36 -10zM858 -10l-20 10q-18 38 -12 86l10 139v260l-4 52q2 16 12 28q14 12 36 10l20 -10q14 -32 14 -72v-276q-6 -54 -7 -109.5
t-13 -107.5q-14 -12 -36 -10zM521 -8l-20 10l-12 22v107l8 128v100l-8 172q2 16 12 28q14 12 36 10l20 -10q14 -44 15 -94t3 -100v-114l-8 -128v-101l-10 -20q-14 -12 -36 -10zM279 0q-18 4 -33 14q-42 131 -80 262t-80 261l10 20q14 12 36 10l20 -10q38 -86 64 -176
t53 -180l6 -2q14 90 33 181t53 175q14 12 36 10l20 -10q12 -16 10 -38q-40 -124 -62 -252t-50 -255q-14 -12 -36 -10zM866 640q-24 4 -42 22q-16 20 -14 48q6 26 24 46l6 6q14 12 36 10l44 -24q20 -26 14 -64l-12 -24l-8 -8q-20 -14 -48 -12zM691 642q-22 4 -38 18
q-16 18 -16 44q6 28 26 52q14 12 36 10q24 -8 44 -22q20 -24 14 -60l-14 -26q-22 -18 -52 -16zM521 646q-22 4 -38 18q-14 18 -14 40q2 28 24 50q14 12 36 10q22 -4 40 -16q20 -26 14 -64l-12 -22q-22 -16 -50 -16z" />
    <glyph glyph-name="uni2178" unicode="&#x2178;" 
d="M772 0q-17 2 -29 12q-28 52 -63 101.5t-69 99.5l-8 2q-36 -52 -71 -106.5t-75 -102.5l-24 -2l-20 10q-12 16 -10 38q38 61 77 120t75 119q-42 60 -87 119t-69 127l10 20q14 12 36 10l20 -10l54 -80l26 -44h4l12 -14l22 -28l20 -24q30 50 57 100t63 96q14 12 36 10l21 -10
q12 -14 10 -36l-29 -48h-4q-26 -48 -54 -95t-52 -97l20 -20l36 -56h4q26 -44 58.5 -86.5t42.5 -92.5l-10 -20q-14 -10 -30 -12zM234 2l-20 10q-10 12 -12 28v141l4 28v86l2 2v142l-4 92q2 16 12 28q14 12 36 10l21 -10q12 -24 11 -54t3 -58v-158l-2 -2v-86l-4 -28v-141
l-10 -20q-14 -12 -37 -10zM224 648q-18 4 -32 16q-20 22 -18 54q4 20 18 36q24 24 60 20q21 -4 39 -18v-4h4q20 -24 14 -58l-14 -26q-30 -22 -71 -20z" />
    <glyph glyph-name="uni2179" unicode="&#x2179;" 
d="M337 0q-16 2 -28 12q-12 14 -10 36l14 26h4q36 55 73 107t71 106q-38 36 -62 77t-52 81l-12 12v4h-4q-28 28 -28 68l10 20q14 12 36 10l20 -10l28 -46h4l6 -6l6 -6q22 -32 39 -64t43 -62l4 -2l4 -10h4q18 20 32 42l28 44l6 4q16 30 39 58t43 58q14 12 36 10l20 -10
q12 -14 10 -36l-40 -64l-12 -14h-4l-76 -116h-4l-8 -16h-4l-12 -24l42 -68h4l34 -54l6 -4l8 -12h4l32 -32v-4l10 -7q32 -26 34 -64l-10 -20q-16 -12 -38 -10l-28 18l-78 87v4h-4l-60 92h-4l-18 -26h-4l-10 -18h-4l-6 -12h-4l-28 -46h-4q-14 -27 -31 -52t-35 -49
q-14 -10 -32 -12z" />
    <glyph glyph-name="uni217A" unicode="&#x217a;" horiz-adv-x="512" 
 />
    <glyph glyph-name="uni217B" unicode="&#x217b;" horiz-adv-x="512" 
 />
    <glyph glyph-name="uni217C" unicode="&#x217c;" horiz-adv-x="512" 
 />
    <glyph glyph-name="uni217D" unicode="&#x217d;" horiz-adv-x="512" 
 />
    <glyph glyph-name="uni217E" unicode="&#x217e;" horiz-adv-x="512" 
 />
    <glyph glyph-name="uni217F" unicode="&#x217f;" horiz-adv-x="512" 
 />
    <glyph glyph-name="uni2180" unicode="&#x2180;" horiz-adv-x="512" 
 />
    <glyph glyph-name="uni2181" unicode="&#x2181;" horiz-adv-x="512" 
 />
    <glyph glyph-name="uni2182" unicode="&#x2182;" horiz-adv-x="512" 
 />
    <glyph glyph-name="arrowleft" unicode="&#x2190;" 
d="M283 179l-25 2q-42 24 -74 62v4h-4l-4 10l-30 22v4l-22 14l-2 6h-4q-22 28 -54 44l-10 20q-2 22 10 38h4v4l36 22l6 4v4q32 24 66 44t64 46q18 20 43 30q22 2 36 -10l10 -20q2 -22 -10 -36l-30 -30q-37 -30 -77 -48v-6l20 -2h153l2 2h172l2 -2h124l2 -2h277l20 -10
l10 -20q2 -22 -10 -36q-12 -10 -28 -12h-275l-2 2h-124l-2 2h-158l-2 -2h-167l-2 2h-10v-8l10 -4v-4h4q16 -20 34.5 -38t40.5 -30l10 -20q2 -22 -10 -38z" />
    <glyph glyph-name="arrowup" unicode="&#x2191;" 
d="M509 -62l-20 10q-14 22 -13 50t1 56l4 20v121l-4 46v226l4 62v82l-4 77h-4l-24 -32h-4v-4l-12 -12h-4l-6 -12l-6 -2l-20 -31q-14 -12 -36 -10l-20 10q-12 16 -10 39q16 34 46 64h4v4q18 20 35 42t31 44h4l24 38q20 16 46 14l20 -10q20 -26 46 -48t48 -48v-4l6 -2l8 -8v-4
l16 -10l34 -34l6 -6q12 -16 10 -38l-10 -21q-16 -14 -40 -10l-20 10l-88 91v-75l2 -2v-100l-4 -62v-210l4 -44v-139q-6 -28 -3 -60t-11 -58q-14 -12 -36 -10z" />
    <glyph glyph-name="arrowright" unicode="&#x2192;" 
d="M765 179l-20 10q-12 16 -10 38l10 20q22 12 40.5 30t34.5 38h4v4l10 4v8h-10l-2 -2h-167l-2 2h-158l-2 -2h-124l-2 -2h-275q-16 2 -28 12q-12 14 -10 36l10 20l20 10h277l2 2h124l2 2h172l2 -2h153l20 2v6q-40 18 -77 48l-30 30q-12 14 -10 36l10 20q14 12 36 10
q25 -10 43 -30q30 -26 64 -46t66 -44v-4l6 -4l36 -22v-4h4q12 -16 10 -38l-10 -20q-32 -16 -54 -44h-4l-2 -6l-22 -14v-4l-30 -22l-4 -10h-4v-4q-32 -38 -74 -62z" />
    <glyph glyph-name="arrowdown" unicode="&#x2193;" 
d="M509 840q22 2 36 -10q14 -26 11 -58t3 -60v-139l-4 -44v-210l4 -62v-100l-2 -2v-75l88 91l20 10q24 4 40 -10l10 -21q2 -22 -10 -38l-6 -6l-34 -34l-16 -10v-4l-8 -8l-6 -2v-4q-22 -26 -48 -48t-46 -48l-20 -10q-26 -2 -46 14l-24 38h-4q-14 22 -31 44t-35 42v4h-4
q-30 30 -46 64q-2 23 10 39l20 10q22 2 36 -10l20 -31l6 -2l6 -12h4l12 -12v-4h4l24 -32h4l4 77v82l-4 62v226l4 46v121l-4 20q0 28 -1 56t13 50z" />
    <glyph glyph-name="arrowboth" unicode="&#x2194;" horiz-adv-x="512" 
 />
    <glyph glyph-name="arrowupdn" unicode="&#x2195;" horiz-adv-x="512" 
 />
    <glyph glyph-name="uni2196" unicode="&#x2196;" horiz-adv-x="512" 
 />
    <glyph glyph-name="uni2197" unicode="&#x2197;" horiz-adv-x="512" 
 />
    <glyph glyph-name="uni2198" unicode="&#x2198;" horiz-adv-x="512" 
 />
    <glyph glyph-name="uni2199" unicode="&#x2199;" horiz-adv-x="512" 
 />
    <glyph glyph-name="uni219A" unicode="&#x219a;" horiz-adv-x="512" 
 />
    <glyph glyph-name="uni219B" unicode="&#x219b;" horiz-adv-x="512" 
 />
    <glyph glyph-name="uni219C" unicode="&#x219c;" horiz-adv-x="512" 
 />
    <glyph glyph-name="uni219D" unicode="&#x219d;" horiz-adv-x="512" 
 />
    <glyph glyph-name="uni219E" unicode="&#x219e;" horiz-adv-x="512" 
 />
    <glyph glyph-name="uni219F" unicode="&#x219f;" horiz-adv-x="512" 
 />
    <glyph glyph-name="uni21A0" unicode="&#x21a0;" horiz-adv-x="512" 
 />
    <glyph glyph-name="uni21A1" unicode="&#x21a1;" horiz-adv-x="512" 
 />
    <glyph glyph-name="uni21A2" unicode="&#x21a2;" horiz-adv-x="512" 
 />
    <glyph glyph-name="uni21A3" unicode="&#x21a3;" horiz-adv-x="512" 
 />
    <glyph glyph-name="uni21A4" unicode="&#x21a4;" horiz-adv-x="512" 
 />
    <glyph glyph-name="uni21A5" unicode="&#x21a5;" horiz-adv-x="512" 
 />
    <glyph glyph-name="uni21A6" unicode="&#x21a6;" horiz-adv-x="512" 
 />
    <glyph glyph-name="uni21A7" unicode="&#x21a7;" horiz-adv-x="512" 
 />
    <glyph glyph-name="arrowupdnbse" unicode="&#x21a8;" horiz-adv-x="512" 
 />
    <glyph glyph-name="uni21A9" unicode="&#x21a9;" horiz-adv-x="512" 
 />
    <glyph glyph-name="uni21AA" unicode="&#x21aa;" horiz-adv-x="512" 
 />
    <glyph glyph-name="uni21AB" unicode="&#x21ab;" horiz-adv-x="512" 
 />
    <glyph glyph-name="uni21AC" unicode="&#x21ac;" horiz-adv-x="512" 
 />
    <glyph glyph-name="uni21AD" unicode="&#x21ad;" horiz-adv-x="512" 
 />
    <glyph glyph-name="uni21AE" unicode="&#x21ae;" horiz-adv-x="512" 
 />
    <glyph glyph-name="uni21AF" unicode="&#x21af;" horiz-adv-x="512" 
 />
    <glyph glyph-name="uni21B0" unicode="&#x21b0;" horiz-adv-x="512" 
 />
    <glyph glyph-name="uni21B1" unicode="&#x21b1;" horiz-adv-x="512" 
 />
    <glyph glyph-name="uni21B2" unicode="&#x21b2;" horiz-adv-x="512" 
 />
    <glyph glyph-name="uni21B3" unicode="&#x21b3;" horiz-adv-x="512" 
 />
    <glyph glyph-name="uni21B4" unicode="&#x21b4;" horiz-adv-x="512" 
 />
    <glyph glyph-name="carriagereturn" unicode="&#x21b5;" horiz-adv-x="512" 
 />
    <glyph glyph-name="uni21B6" unicode="&#x21b6;" horiz-adv-x="512" 
 />
    <glyph glyph-name="uni21B7" unicode="&#x21b7;" horiz-adv-x="512" 
 />
    <glyph glyph-name="uni21B8" unicode="&#x21b8;" horiz-adv-x="512" 
 />
    <glyph glyph-name="uni21B9" unicode="&#x21b9;" horiz-adv-x="512" 
 />
    <glyph glyph-name="uni21BA" unicode="&#x21ba;" horiz-adv-x="512" 
 />
    <glyph glyph-name="uni21BB" unicode="&#x21bb;" horiz-adv-x="512" 
 />
    <glyph glyph-name="uni21BC" unicode="&#x21bc;" horiz-adv-x="512" 
 />
    <glyph glyph-name="uni21BD" unicode="&#x21bd;" horiz-adv-x="512" 
 />
    <glyph glyph-name="uni21BE" unicode="&#x21be;" horiz-adv-x="512" 
 />
    <glyph glyph-name="uni21BF" unicode="&#x21bf;" horiz-adv-x="512" 
 />
    <glyph glyph-name="uni21C0" unicode="&#x21c0;" horiz-adv-x="512" 
 />
    <glyph glyph-name="uni21C1" unicode="&#x21c1;" horiz-adv-x="512" 
 />
    <glyph glyph-name="uni21C2" unicode="&#x21c2;" horiz-adv-x="512" 
 />
    <glyph glyph-name="uni21C3" unicode="&#x21c3;" horiz-adv-x="512" 
 />
    <glyph glyph-name="uni21C4" unicode="&#x21c4;" horiz-adv-x="512" 
 />
    <glyph glyph-name="uni21C5" unicode="&#x21c5;" horiz-adv-x="512" 
 />
    <glyph glyph-name="uni21C6" unicode="&#x21c6;" horiz-adv-x="512" 
 />
    <glyph glyph-name="uni21C7" unicode="&#x21c7;" horiz-adv-x="512" 
 />
    <glyph glyph-name="uni21C8" unicode="&#x21c8;" horiz-adv-x="512" 
 />
    <glyph glyph-name="uni21C9" unicode="&#x21c9;" horiz-adv-x="512" 
 />
    <glyph glyph-name="uni21CA" unicode="&#x21ca;" horiz-adv-x="512" 
 />
    <glyph glyph-name="uni21CB" unicode="&#x21cb;" horiz-adv-x="512" 
 />
    <glyph glyph-name="uni21CC" unicode="&#x21cc;" horiz-adv-x="512" 
 />
    <glyph glyph-name="uni21CD" unicode="&#x21cd;" horiz-adv-x="512" 
 />
    <glyph glyph-name="uni21CE" unicode="&#x21ce;" horiz-adv-x="512" 
 />
    <glyph glyph-name="uni21CF" unicode="&#x21cf;" horiz-adv-x="512" 
 />
    <glyph glyph-name="arrowdblleft" unicode="&#x21d0;" horiz-adv-x="512" 
 />
    <glyph glyph-name="arrowdblup" unicode="&#x21d1;" horiz-adv-x="512" 
 />
    <glyph glyph-name="arrowdblright" unicode="&#x21d2;" 
d="M663 113l-20 10q-12 14 -10 36q8 22 28 40l8 8l28 20v8h-50q-24 -4 -51 -4t-53 -2h-186l-38 2l-2 -2h-83l-90 -12q-32 0 -60 16q-12 14 -10 36l10 20q18 14 44 10l28 -4l70 12h85l54 2l2 -2h170l104 6h112l14 -2q31 30 51 62l12 10v6q-30 20 -58.5 44t-68.5 18l-64 -10
h-176l-60 4h-118q-43 -2 -84 -6t-85 -2q-16 2 -28 12q-12 14 -10 36l10 20q44 10 93 12t98 6h132l60 -4h162l46 8v4l-14 8q-28 22 -26 54l10 20q14 13 36 10l20 -10q30 -24 56 -52v-4h4v-4l7 -2v-4l6 -2q20 -34 51 -56t61 -46q24 -20 40 -46l2 -26l-10 -20q-26 -16 -50 -38
l-14 -22h-4v-4l-10 -12l-8 -8h-4l-4 -10h-4q-14 -24 -32 -46h-4l-8 -14l-49 -42h-4l-2 -6h-4v-4h-4l-16 -20q-16 -15 -38 -12z" />
    <glyph glyph-name="arrowdbldown" unicode="&#x21d3;" horiz-adv-x="512" 
 />
    <glyph glyph-name="arrowdblboth" unicode="&#x21d4;" 
d="M337 115q-16 2 -28 12q-24 26 -45.5 52t-41.5 52l-44 46v4h-4q-32 38 -74 62q-12 16 -10 38l10 20q34 26 62 60h4l4 8l6 2v4l14 8l4 8l18 12l2 6l6 2l16 22l6 2l15 20l8 8h4l8 14l6 2l6 10l34 34q14 13 36 11l20 -11q12 -14 10 -36q-10 -24 -30 -42l-24 -28l50 -2
q48 10 99 14t103 4l86 -4v4l-32 30q-12 14 -10 36l10 20q14 13 36 11q34 -17 62 -47v-4l6 -4l4 -8l16 -12q25 -32 57 -54t58 -50v-4l8 -4l24 -26q12 -16 10 -38l-10 -20q-30 -30 -56 -62h-4l-4 -10l-16 -16h-4l-12 -22h-4l-10 -18h-4l-8 -14h-4l-2 -6l-6 -2l-4 -10l-7 -2
l-8 -14l-32 -32h-4l-12 -16l-6 -2l-2 -6q-16 -14 -38 -12l-20 10q-12 16 -10 38l10 20l30 30h4l2 6l14 16h-44l-2 -2h-114l-204 -6v-4l2 -6h4l6 -6l24 -24q14 -16 10 -40l-10 -20q-14 -10 -30 -12zM765 317l35 38h4l24 36l-12 10v4h-4q-24 26 -55 44v4h-12l-2 -2h-94l-112 4
q-54 -2 -104 -11t-104 -7q-36 0 -68 6l-11 -6v-4h-4l-4 -8q-28 -22 -48 -50l44 -44v-4l10 -6l17 -18h46l2 2h84l132 6h114l2 2h82z" />
    <glyph glyph-name="uni21D5" unicode="&#x21d5;" horiz-adv-x="512" 
 />
    <glyph glyph-name="uni21D6" unicode="&#x21d6;" horiz-adv-x="512" 
 />
    <glyph glyph-name="uni21D7" unicode="&#x21d7;" horiz-adv-x="512" 
 />
    <glyph glyph-name="uni21D8" unicode="&#x21d8;" horiz-adv-x="512" 
 />
    <glyph glyph-name="uni21D9" unicode="&#x21d9;" horiz-adv-x="512" 
 />
    <glyph glyph-name="uni21DA" unicode="&#x21da;" horiz-adv-x="512" 
 />
    <glyph glyph-name="uni21DB" unicode="&#x21db;" horiz-adv-x="512" 
 />
    <glyph glyph-name="uni21DC" unicode="&#x21dc;" horiz-adv-x="512" 
 />
    <glyph glyph-name="uni21DD" unicode="&#x21dd;" horiz-adv-x="512" 
 />
    <glyph glyph-name="uni21DE" unicode="&#x21de;" horiz-adv-x="512" 
 />
    <glyph glyph-name="uni21DF" unicode="&#x21df;" horiz-adv-x="512" 
 />
    </font>
</defs>
</svg>
